<?xml version="1.0" standalone="no"?>
<!DOCTYPE svg PUBLIC "-//W3C//DTD SVG 1.1//EN" "http://www.w3.org/Graphics/SVG/1.1/DTD/svg11.dtd" >
<!--
2016-6-22: Created.
-->
<svg xmlns="http://www.w3.org/2000/svg">
<metadata>
Created by FontForge 20120731 at Wed Jun 22 15:11:33 2016
 By root
Created by root with FontForge 2.0 (http://fontforge.sf.net)
</metadata>
<defs>
<font id="Flaticon" horiz-adv-x="512" >
  <font-face 
    font-family="Flaticon"
    font-weight="500"
    font-stretch="normal"
    units-per-em="512"
    panose-1="2 0 6 3 0 0 0 0 0 0"
    ascent="448"
    descent="-64"
    bbox="-0.0012207 -64.001 512.001 448.001"
    underline-thickness="25.6"
    underline-position="-51.2"
    unicode-range="U+0020-F2A6"
  />
    <missing-glyph />
    <glyph glyph-name="space" unicode=" " horiz-adv-x="200" 
 />
    <glyph glyph-name="uniF1C1" unicode="&#xf1c1;" 
d="M393.432 359.073l118.568 -167.073l-118.568 -167.073c-8.08398 -13.4746 -24.2529 -21.5586 -43.1162 -21.5586h-296.421c-29.6416 0 -53.8945 24.2529 -53.8945 53.8945v269.475c0 29.6416 24.2529 53.8945 53.8945 53.8945h296.421
c18.8633 0 35.0332 -8.08496 43.1162 -21.5586zM350.315 57.2627l94.3164 134.737l-94.3164 134.737h-296.421v-269.475h296.421z" />
    <glyph glyph-name="uniF154" unicode="&#xf154;" 
d="M413.866 256c53.334 -4.2666 98.1338 -51.2002 98.1338 -106.667c0 -36.2666 -17.0664 -68.2666 -44.7998 -87.4668l-32 32c21.333 10.667 34.1328 32 34.1328 55.4668c0 36.2666 -27.7334 64 -64 64h-32v10.667c0 64 -53.333 117.333 -117.333 117.333
c-19.2002 0 -38.4004 -4.2666 -53.333 -14.9326l-32 32c23.4668 17.0664 53.333 25.5996 85.333 25.5996c78.9326 0 142.933 -55.4668 157.866 -128zM64 356.267l27.7334 27.7334l356.267 -356.267l-27.7334 -27.7334l-42.667 42.667h-249.6
c-70.4004 0 -128 57.5996 -128 128c0 68.2666 55.4668 123.733 123.733 128zM164.267 256h-36.2666c-46.9336 0 -85.333 -38.4004 -85.333 -85.333c0 -46.9336 38.3994 -85.334 85.333 -85.334h206.934z" />
    <glyph glyph-name="uniF278" unicode="&#xf278;" 
d="M212.585 379.135c-8.98242 -2.99414 -14.9707 -8.98242 -20.959 -14.9707l-44.9121 44.9121c20.959 14.9707 41.918 23.9531 65.8711 29.9414v-59.8828zM0 406.082l35.9297 38.9238l473.076 -470.082l-38.9238 -38.9229l-71.8594 71.8604
c-20.959 -14.9717 -41.9189 -23.9541 -65.8721 -29.9424v62.8779c8.98242 2.99219 17.9639 5.98633 23.9531 8.98047l-242.526 242.526c-14.9707 -26.9473 -20.959 -53.8945 -20.959 -83.8359c0 -50.9004 20.959 -95.8125 53.8955 -125.754l65.8711 65.8711v-179.649
h-179.649l71.8594 71.8594c-44.9121 41.9189 -71.8594 101.802 -71.8594 167.673c0 47.9062 14.9707 89.8242 38.9238 125.755zM512 448l-71.8594 -71.8594c44.9121 -41.918 71.8594 -101.802 71.8594 -167.673c0 -47.9053 -14.9707 -89.8242 -35.9297 -128.748
l-44.9121 44.9121c14.9707 26.9473 20.959 53.8945 20.959 83.8359c0 50.9004 -20.958 95.8125 -53.8945 125.755l-65.8721 -65.8721v179.649h179.649z" />
    <glyph glyph-name="uniF102" unicode="&#xf102;" 
d="M512 396.8v-460.8l-102.4 102.4h-358.399c-28.1602 0 -51.2002 23.04 -51.2002 51.1992v307.2c0 28.1602 23.04 51.2002 51.2002 51.2002h409.6c28.1602 0 51.2002 -23.04 51.2002 -51.2002zM409.6 140.8v51.2002h-307.199v-51.2002h307.199zM409.6 217.6v51.2002
h-307.199v-51.2002h307.199zM409.6 294.4v51.1992h-307.199v-51.1992h307.199z" />
    <glyph glyph-name="uniF215" unicode="&#xf215;" 
d="M372.688 162.232l-226.232 -226.232l-33.3398 33.3398l109.544 109.544l-83.3486 83.3486v0c-30.958 30.958 -50.0088 71.4424 -50.0088 119.07c0 92.874 73.8232 166.697 166.697 166.697s166.697 -73.8232 166.697 -166.697
c0 -47.6279 -19.0518 -88.1123 -50.0088 -119.07zM339.349 197.953v0c21.4326 21.4326 35.7207 50.0098 35.7207 83.3496c0 66.6787 -52.3906 119.069 -119.069 119.069s-119.069 -52.3906 -119.069 -119.069c0 -33.3398 14.2881 -61.917 35.7207 -85.7305v0v0
l83.3486 -83.3486l83.3486 85.7295v0zM289.34 12.2051l33.3389 33.3389l76.2051 -76.2041l-33.3398 -33.3398z" />
    <glyph glyph-name="uniF119" unicode="&#xf119;" 
d="M460.8 371.2c28.1602 0 51.2002 -23.04 51.2002 -51.2002v-256c0 -28.1602 -23.04 -51.2002 -51.2002 -51.2002h-409.6c-28.1602 0 -51.2002 23.04 -51.2002 51.2002v256c0 28.1602 23.04 51.2002 51.2002 51.2002h409.6zM230.4 294.4v-51.2002h51.1992v51.2002h-51.1992
zM230.4 217.6v-51.1992h51.1992v51.1992h-51.1992zM153.6 294.4v-51.2002h51.2002v51.2002h-51.2002zM153.6 217.6v-51.1992h51.2002v51.1992h-51.2002zM128 166.4v51.1992h-51.2002v-51.1992h51.2002zM128 243.2v51.2002h-51.2002v-51.2002h51.2002zM358.4 64v51.2002
h-204.801v-51.2002h204.801zM358.4 166.4v51.1992h-51.2002v-51.1992h51.2002zM358.4 243.2v51.2002h-51.2002v-51.2002h51.2002zM435.2 166.4v51.1992h-51.2002v-51.1992h51.2002zM435.2 243.2v51.2002h-51.2002v-51.2002h51.2002z" />
    <glyph glyph-name="uniF23A" unicode="&#xf23a;" 
d="M365.714 126.172l146.286 -146.286l-43.8857 -43.8857l-146.286 146.287v23.4053l-8.77637 8.77637c-32.1836 -29.2578 -76.0693 -46.8115 -122.88 -46.8115c-105.326 0 -190.172 84.8457 -190.172 190.171c0 105.326 84.8457 190.172 190.172 190.172
c105.325 0 190.171 -84.8457 190.172 -190.172c0 -46.8105 -17.5537 -90.6963 -46.8115 -122.88l8.77637 -8.77637h23.4053zM190.172 126.172c73.1426 0 131.656 58.5137 131.656 131.656c0 73.1436 -58.5137 131.657 -131.656 131.657
c-73.1436 0 -131.657 -58.5137 -131.657 -131.657c0 -73.1426 58.5137 -131.656 131.657 -131.656z" />
    <glyph glyph-name="uniF22D" unicode="&#xf22d;" 
d="M256 448c140.8 0 256 -115.2 256 -256s-115.2 -256 -256 -256s-256 115.2 -256 256s115.2 256 256 256zM384 166.4v51.1992h-256v-51.1992h256z" />
    <glyph glyph-name="uniF1D9" unicode="&#xf1d9;" 
d="M256 405.333c96 0 185.6 -32 256 -85.333l-256 -341.333l-256 341.333c70.4004 53.333 160 85.333 256 85.333zM256 234.667c42.667 0 81.0664 -10.667 117.333 -29.8672l76.8008 104.533c-57.6006 34.1338 -123.733 53.334 -194.134 53.334
s-136.533 -19.2002 -194.134 -53.334l76.8008 -102.399c36.2666 17.0664 74.666 27.7334 117.333 27.7334z" />
    <glyph glyph-name="uniF12E" unicode="&#xf12e;" 
d="M483.556 305.777v-56.8887h-59.7334c2.84473 -8.5332 2.84473 -19.9111 2.84473 -28.4443v-28.4443h56.8887v-56.8887h-56.8887v-28.4443c0 -8.5332 0 -19.9111 -2.84473 -28.4443h59.7334v-56.8896h-79.6445c-28.4443 -51.1992 -85.333 -85.333 -147.911 -85.333
s-119.467 34.1338 -147.911 85.333h-79.6445v56.8896h59.7334c-2.84473 8.5332 -2.84473 19.9111 -2.84473 28.4443v28.4443h-56.8887v56.8887h56.8887v28.4443c0 8.5332 0 19.9111 2.84473 28.4443h-59.7334v56.8887h79.6445
c14.2227 22.7559 31.2891 42.667 51.2002 56.8896l-45.5117 45.5107l39.8223 39.8223l62.5781 -62.5781c11.3779 2.84473 25.5996 5.68945 39.8223 5.68945s28.4443 -2.84473 39.8223 -5.68945l62.5781 62.5781l39.8223 -39.8223l-45.5107 -45.5107
c19.9102 -14.2227 36.9766 -34.1338 51.1992 -56.8896h79.6445zM312.889 78.2227v56.8887h-113.777v-56.8887h113.777zM312.889 192v56.8887h-113.777v-56.8887h113.777z" />
    <glyph glyph-name="uniF26D" unicode="&#xf26d;" 
d="M325.818 424.728c25.5996 0 46.5449 -20.9453 46.5449 -46.5459v-232.728c0 -11.6357 -4.6543 -23.2725 -13.9629 -32.5811l-153.601 -153.601l-25.5996 23.2734c-4.6543 6.98242 -9.30957 16.29 -9.30957 25.5996v6.98145l23.2734 107.055h-146.618
c-25.6006 0 -46.5459 20.9453 -46.5459 46.5459v2.32715v0v44.2178c0 6.98242 2.32715 11.6367 4.6543 16.291l69.8184 165.236c6.98145 16.291 23.2725 27.9277 41.8906 27.9277h209.455zM418.909 424.728h93.0908v-279.273h-93.0908v279.273z" />
    <glyph glyph-name="uniF175" unicode="&#xf175;" 
d="M201.955 89.5996l73.9561 73.9561h-275.911v56.8887h275.911l-73.9561 73.9561l39.8223 39.8223l142.223 -142.223l-142.223 -142.223zM455.111 448c31.2891 0 56.8887 -25.5996 56.8887 -56.8887v-398.223c0 -31.2891 -25.5996 -56.8887 -56.8887 -56.8887h-398.223
c-31.2891 0 -56.8887 25.5996 -56.8887 56.8887v113.778h56.8887v-113.778h398.223v398.223h-398.223v-113.778h-56.8887v113.778c0 31.2891 25.5996 56.8887 56.8887 56.8887h398.223z" />
    <glyph glyph-name="uniF1D1" unicode="&#xf1d1;" 
d="M341.333 337.066c-21.333 0 -38.3994 17.0674 -38.3994 38.4004s17.0664 38.3994 38.3994 38.3994c21.334 0 38.4004 -17.0664 38.4004 -38.3994s-17.0664 -38.4004 -38.4004 -38.4004zM405.333 183.467c59.7334 0 106.667 -46.9326 106.667 -106.667
s-46.9336 -106.666 -106.667 -106.666s-106.666 46.9326 -106.666 106.666s46.9326 106.667 106.666 106.667zM405.333 2.13379c40.5332 0 74.667 34.1338 74.667 74.666c0 40.5342 -34.1338 74.667 -74.667 74.667s-74.666 -34.1328 -74.666 -74.667
c0 -40.5322 34.1328 -74.666 74.666 -74.666zM315.733 226.134l-36.2666 53.333l-49.0664 -49.0664l46.9326 -36.2666v-138.667h-38.3994v106.667l-72.5332 42.666c-10.667 6.40039 -17.0674 19.2002 -17.0674 32c0 10.667 4.2666 19.2002 10.667 25.6006l78.9336 78.9326
c6.39941 6.40039 14.9326 10.667 25.5996 10.667c14.9336 0 25.6006 -6.40039 32 -17.0664l40.5332 -70.4004h68.2666v-38.3994h-89.5996zM106.667 183.467c59.7334 0 106.666 -46.9326 106.666 -106.667s-46.9326 -106.666 -106.666 -106.666
s-106.667 46.9326 -106.667 106.666s46.9336 106.667 106.667 106.667zM106.667 2.13379c40.5332 0 74.666 34.1338 74.666 74.666c0 40.5342 -34.1328 74.667 -74.666 74.667s-74.667 -34.1328 -74.667 -74.667c0 -40.5322 34.1338 -74.666 74.667 -74.666z" />
    <glyph glyph-name="uniF153" unicode="&#xf153;" 
d="M413.866 234.667c53.334 -4.2666 98.1338 -51.2002 98.1338 -106.667c0 -59.7334 -46.9336 -106.667 -106.667 -106.667h-277.333c-70.4004 0 -128 57.6006 -128 128c0 66.1338 49.0664 119.467 115.2 128c25.5996 51.2002 78.9336 85.334 140.8 85.334
c78.9336 0 142.934 -55.4668 157.866 -128zM362.667 170.667h-64v85.333h-85.334v-85.333h-64l106.667 -106.667z" />
    <glyph glyph-name="uniF130" unicode="&#xf130;" 
d="M455.111 448c31.2891 0 56.8887 -25.5996 56.8887 -56.8887v-398.223c0 -31.2891 -25.5996 -56.8887 -56.8887 -56.8887h-398.223c-31.2891 0 -56.8887 25.5996 -56.8887 56.8887v398.223c0 31.2891 25.5996 56.8887 56.8887 56.8887h398.223zM256 21.333
c93.8662 0 170.667 76.8008 170.667 170.667s-76.8008 170.667 -170.667 170.667s-170.667 -76.8008 -170.667 -170.667s76.8008 -170.667 170.667 -170.667zM142.223 192c0 75.8516 37.9258 113.777 113.777 113.777s113.777 -37.9258 113.777 -113.777
s-37.9258 -113.777 -113.777 -113.777s-113.777 37.9258 -113.777 113.777z" />
    <glyph glyph-name="uniF1CA" unicode="&#xf1ca;" 
d="M0 163.556v56.8887h56.8887v-56.8887h-56.8887zM0 49.7773v56.8896h56.8887v-56.8896h-56.8887zM0 277.333v56.8896h56.8887v-56.8896h-56.8887zM113.777 163.556v56.8887h398.223v-56.8887h-398.223zM113.777 49.7773v56.8896h398.223v-56.8896h-398.223z
M113.777 334.223h398.223v-56.8896h-398.223v56.8896z" />
    <glyph glyph-name="uniF125" unicode="&#xf125;" 
d="M512 249.754l-139.647 -121.012l41.8555 -179.942l-158.208 95.4365l-158.208 -95.4365l41.8564 179.942l-139.648 121.012l184.09 15.7949l71.9102 169.651l71.9111 -169.651zM256 92.2627l96.3574 -58.1123l-25.498 109.594l85.0439 73.6768l-112.127 9.62598
l-43.7764 103.321l-43.7764 -103.322l-112.128 -9.62598l85.0684 -73.6768l-25.4971 -109.594z" />
    <glyph glyph-name="uniF17B" unicode="&#xf17b;" 
d="M256 -43.5205l-35.8398 35.8408c-133.12 117.76 -220.16 197.12 -220.16 294.399c0 79.3604 61.4404 140.8 140.8 140.8c43.5205 0 87.04 -20.4795 115.2 -53.7598c28.1602 33.2803 71.6797 53.7598 115.2 53.7598c79.3594 0 140.8 -61.4395 140.8 -140.8
c0 -97.2793 -87.04 -176.64 -220.16 -294.399z" />
    <glyph glyph-name="uniF13D" unicode="&#xf13d;" 
d="M0 128v128h42.667v-128h-42.667zM64 85.333v213.334h42.667v-213.334h-42.667zM469.333 256h42.667v-128h-42.667v128zM405.333 85.333v213.334h42.667v-213.334h-42.667zM352 384c17.0664 0 32 -14.9336 32 -32v-320c0 -17.0664 -14.9336 -32 -32 -32h-192
c-17.0664 0 -32 14.9336 -32 32v320c0 17.0664 14.9336 32 32 32h192zM341.333 42.667v298.666h-170.666v-298.666h170.666z" />
    <glyph glyph-name="uniF19A" unicode="&#xf19a;" 
d="M512 -7.11133c0 -31.2891 -25.5996 -56.8887 -56.8887 -56.8887h-398.223c-31.2891 0 -56.8887 25.5996 -56.8887 56.8887v398.223c0 31.2891 25.5996 56.8887 56.8887 56.8887h398.223c31.2891 0 56.8887 -25.5996 56.8887 -56.8887v-398.223zM156.444 149.333
l-99.5557 -128h398.223l-128 170.667l-99.5557 -128z" />
    <glyph glyph-name="uniF1E3" unicode="&#xf1e3;" 
d="M512 -7.11133c0 -31.2891 -25.5996 -56.8887 -56.8887 -56.8887h-398.223c-31.2891 0 -56.8887 25.5996 -56.8887 56.8887v398.223c0 31.2891 25.5996 56.8887 56.8887 56.8887h398.223c31.2891 0 56.8887 -25.5996 56.8887 -56.8887v-398.223zM156.444 149.333
l-99.5557 -128h398.223l-128 170.667l-99.5557 -128z" />
    <glyph glyph-name="uniF196" unicode="&#xf196;" 
d="M455.111 448c31.2891 0 56.8887 -25.5996 56.8887 -56.8887v-398.223c0 -31.2891 -25.5996 -56.8887 -56.8887 -56.8887h-398.223c-31.2891 0 -56.8887 25.5996 -56.8887 56.8887v398.223c0 31.2891 25.5996 56.8887 56.8887 56.8887h398.223zM398.223 277.333v56.8896
h-284.445v-56.8896h284.445zM398.223 163.556v56.8887h-284.445v-56.8887h284.445zM312.889 49.7773v56.8896h-199.111v-56.8896h199.111z" />
    <glyph glyph-name="uniF165" unicode="&#xf165;" 
d="M256 448c140.8 0 256 -115.2 256 -256s-115.2 -256 -256 -256s-256 115.2 -256 256s115.2 256 256 256zM51.2002 192c0 -46.0801 15.3594 -89.5996 43.5195 -125.44l286.721 286.721c-35.8408 28.1602 -79.3604 43.5195 -125.44 43.5195
c-112.64 0 -204.8 -92.1602 -204.8 -204.8zM256 -12.7998c112.64 0 204.8 92.1602 204.8 204.8c0 46.0801 -15.3594 89.5996 -43.5195 125.44l-286.721 -286.721c35.8408 -28.1602 79.3604 -43.5195 125.44 -43.5195z" />
    <glyph glyph-name="uniF26A" unicode="&#xf26a;" 
d="M256 448c140.8 0 256 -115.2 256 -256s-115.2 -256 -256 -256s-256 115.2 -256 256s115.2 256 256 256zM256 371.2c-99.8398 0 -179.2 -79.3604 -179.2 -179.2c0 -48.6396 20.4805 -94.7197 53.7598 -125.44l53.7607 53.7607
c-20.4805 17.9199 -30.7207 43.5195 -30.7207 71.6797c0 56.3203 46.0801 102.4 102.4 102.4c17.9199 0 35.8398 -5.12012 51.2002 -15.3604l56.3193 56.3203c-30.7197 23.04 -66.5596 35.8398 -107.52 35.8398zM381.44 66.5596
c33.2793 30.7207 53.7598 76.8008 53.7598 125.44c0 40.96 -12.7998 76.7998 -35.8398 107.52l-56.3203 -56.3193c10.2402 -15.3604 15.3604 -33.2803 15.3604 -51.2002c0 -28.1602 -12.8008 -53.7598 -30.7207 -71.6797z" />
    <glyph glyph-name="uniF1E4" unicode="&#xf1e4;" 
d="M256 448c140.8 0 256 -115.2 256 -256s-115.2 -256 -256 -256s-256 115.2 -256 256s115.2 256 256 256zM320 243.2l125.44 -125.44c10.2393 23.04 15.3594 48.6406 15.3594 74.2402c0 112.64 -92.1602 204.8 -204.8 204.8s-204.8 -92.1602 -204.8 -204.8
c0 -30.7197 7.67969 -58.8799 17.9199 -84.4805l84.4795 84.4805l58.8809 -56.3203z" />
    <glyph glyph-name="uniF28A" unicode="&#xf28a;" 
d="M256 387.2c-38.4004 0 -67.2002 -28.7998 -67.2002 -67.2002s28.7998 -67.2002 67.2002 -67.2002s67.2002 28.7998 67.2002 67.2002s-28.7998 67.2002 -67.2002 67.2002zM256 99.2002c-96 0 -195.2 -48 -195.2 -67.2002v-35.2002h390.4v35.2002
c0 19.2002 -99.2002 67.2002 -195.2 67.2002zM256 448v0c70.4004 0 128 -57.5996 128 -128s-57.5996 -128 -128 -128s-128 57.5996 -128 128s57.5996 128 128 128zM256 160v0c86.4004 0 256 -41.5996 256 -128v-96h-512v96c0 86.4004 169.6 128 256 128z" />
    <glyph glyph-name="uniF1B9" unicode="&#xf1b9;" 
d="M402.286 277.333c26.8184 0 48.7617 -21.9424 48.7617 -48.7617v-243.81c0 -26.8184 -21.9434 -48.7617 -48.7617 -48.7617h-292.572c-26.8184 0 -48.7617 21.9434 -48.7617 48.7617v243.81c0 26.8193 21.9434 48.7617 48.7617 48.7617h24.3818v48.7627
c0 68.2666 53.6377 121.904 121.904 121.904s121.904 -53.6377 121.904 -121.904v-48.7627h24.3818zM256 57.9043c26.8193 0 48.7617 21.9434 48.7617 48.7627c0 26.8184 -21.9424 48.7617 -48.7617 48.7617s-48.7617 -21.9434 -48.7617 -48.7617
c0 -26.8193 21.9424 -48.7627 48.7617 -48.7627zM331.581 277.333v48.7627c0 41.4473 -34.1338 75.5801 -75.5811 75.5801s-75.5811 -34.1328 -75.5811 -75.5801v-48.7627h151.162z" />
    <glyph glyph-name="uniF262" unicode="&#xf262;" 
d="M256 378.182c102.4 0 186.182 -83.7812 186.182 -186.182c0 -37.2363 -11.6357 -69.8184 -27.9268 -100.072l-34.9092 34.9082c9.30859 18.6182 16.291 41.8916 16.291 65.1641c0 76.7998 -62.8369 139.637 -139.637 139.637v-69.8184l-93.0908 93.0908l93.0908 93.0908
v-69.8184zM256 52.3633v69.8184l93.0908 -93.0908l-93.0908 -93.0908v69.8184c-102.4 0 -186.182 83.7812 -186.182 186.182c0 37.2363 11.6357 69.8184 27.9268 100.072l34.9092 -34.9082c-9.30859 -18.6182 -16.291 -41.8916 -16.291 -65.1641
c0 -76.7998 62.8369 -139.637 139.637 -139.637z" />
    <glyph glyph-name="uniF115" unicode="&#xf115;" 
d="M460.8 448c28.1602 0 51.2002 -23.04 51.2002 -51.2002v-307.2c0 -28.1592 -23.04 -51.1992 -51.2002 -51.1992h-358.399l-102.4 -102.4v460.8c0 28.1602 23.04 51.2002 51.2002 51.2002h409.6z" />
    <glyph glyph-name="uniF1AD" unicode="&#xf1ad;" 
d="M256 448c134.737 0 242.526 -107.789 242.526 -242.526v-188.632c0 -45.8105 -35.0312 -80.8418 -80.8418 -80.8418h-80.8428v215.579h107.79v53.8945c0 105.095 -83.5371 188.632 -188.632 188.632s-188.632 -83.5371 -188.632 -188.632v-53.8945h107.79v-215.579
h-80.8428c-45.8105 0 -80.8418 35.0312 -80.8418 80.8418v188.632c0 134.737 107.789 242.526 242.526 242.526z" />
    <glyph glyph-name="uniF1A8" unicode="&#xf1a8;" 
d="M463.127 215.272h48.873v-46.5449h-48.873c-9.30859 -95.418 -86.1084 -172.219 -183.854 -183.854v-48.873h-46.5449v48.873c-95.4189 9.30859 -172.219 86.1084 -183.854 183.854h-48.873v46.5449h48.873c9.30859 97.7461 86.1084 174.546 183.854 183.854v48.873
h46.5449v-48.873c95.418 -9.30859 172.219 -86.1084 183.854 -183.854zM256 29.0908c90.7637 0 162.909 72.1455 162.909 162.909s-72.1455 162.909 -162.909 162.909s-162.909 -72.1455 -162.909 -162.909s72.1455 -162.909 162.909 -162.909z" />
    <glyph glyph-name="uniF121" unicode="&#xf121;" 
d="M281.6 350.72v-81.9199l-51.1992 51.2002v128h25.5996l145.919 -145.92l-76.7998 -76.7998l-35.8389 35.8398l40.96 40.96zM87.04 396.8l373.76 -373.76l-35.8398 -35.8398l-58.8799 58.8799l-110.08 -110.08h-25.5996v194.56l-117.761 -117.76l-35.8398 35.8398
l143.36 143.36l-168.96 168.96zM281.6 33.2803l48.6406 48.6396l-48.6406 48.6396v-97.2793z" />
    <glyph glyph-name="uniF23E" unicode="&#xf23e;" 
d="M170.667 334.223v-56.8896h-56.8896v56.8896h56.8896zM170.667 220.444v-56.8887h-56.8896v56.8887h56.8896zM170.667 448v-56.8887h-56.8896c0 31.2891 25.6006 56.8887 56.8896 56.8887zM284.444 106.667v-56.8896h-56.8887v56.8896h56.8887zM455.111 448
c31.2891 0 56.8887 -25.5996 56.8887 -56.8887h-56.8887v56.8887zM284.444 448v-56.8887h-56.8887v56.8887h56.8887zM170.667 49.7773c-31.2891 0 -56.8896 25.6006 -56.8896 56.8896h56.8896v-56.8896zM455.111 163.556v56.8887h56.8887v-56.8887h-56.8887z
M455.111 277.333v56.8896h56.8887v-56.8896h-56.8887zM455.111 49.7773v56.8896h56.8887c0 -31.2891 -25.5996 -56.8896 -56.8887 -56.8896zM56.8887 334.223v-341.334h341.334v-56.8887h-341.334c-31.2891 0 -56.8887 25.5996 -56.8887 56.8887v284.444v0v56.8896h56.8887z
M341.333 391.111v56.8887h56.8896v-56.8887h-56.8896zM341.333 49.7773v56.8896h56.8896v-56.8896h-56.8896z" />
    <glyph glyph-name="uniF1FA" unicode="&#xf1fa;" 
d="M512 75.6367c0 -25.6006 -20.9453 -46.5459 -46.5459 -46.5459h-325.817c-25.6006 0 -46.5459 20.9453 -46.5459 46.5459v325.817c0 25.6006 20.9453 46.5459 46.5459 46.5459h325.817c25.6006 0 46.5459 -20.9453 46.5459 -46.5459v-325.817zM221.091 203.637
l-81.4541 -104.728h325.817l-104.727 139.637l-81.4551 -104.728zM0 354.909h46.5459v-372.363h372.363v-46.5459h-372.363c-25.6006 0 -46.5459 20.9453 -46.5459 46.5459v372.363z" />
    <glyph glyph-name="uniF169" unicode="&#xf169;" 
d="M372.363 448c25.6006 0 46.5459 -20.9453 46.5459 -46.5459v-418.908c0 -25.6006 -20.9453 -46.5459 -46.5459 -46.5459h-232.727c-25.6006 0 -46.5459 20.9453 -46.5459 46.5459v418.908c0 25.6006 20.9453 46.5459 46.5459 46.5459h232.727zM372.363 29.0908v325.818
h-232.727v-325.818h232.727zM349.091 168.728l-93.0908 -93.0908l-93.0908 93.0908h69.8184v116.363h46.5449v-116.363h69.8184z" />
    <glyph glyph-name="uniF1D0" unicode="&#xf1d0;" 
d="M158.477 360.229l-60.9531 -34.1328l34.1338 60.9521l-34.1338 60.9521l60.9531 -34.1338l60.9521 34.1338l-34.1348 -60.9521l34.1348 -60.9521zM451.048 121.295l60.9521 34.1338l-34.1338 -60.9521l34.1338 -60.9531l-60.9521 34.1338l-60.9521 -34.1338
l34.1328 60.9531l-34.1328 60.9521zM512 448l-34.1338 -60.9521l34.1338 -60.9521l-60.9521 34.1328l-60.9521 -34.1328l34.1328 60.9521l-34.1328 60.9521l60.9521 -34.1338zM326.705 318.781l56.0762 -56.0762c9.75195 -9.75293 9.75195 -24.3809 0 -34.1338
l-285.259 -285.256c-9.75195 -9.75293 -24.3809 -9.75293 -34.1328 0l-56.0762 56.0752c-9.75293 9.75195 -9.75293 24.3809 0 34.1328l285.258 285.258c9.75293 9.75195 24.3809 9.75195 34.1338 0zM299.886 184.686l58.5146 58.5146l-51.2002 51.2002l-58.5146 -58.5146z
" />
    <glyph glyph-name="uniF100" unicode="&#xf100;" 
d="M152.079 407.445l-116.594 -96.3164l-32.9512 38.0195l116.595 96.3164zM509.466 349.148l-32.9512 -38.0195l-116.594 98.8516l32.9502 38.0195zM256 392.237c126.732 0 228.119 -101.386 228.119 -228.118c0 -126.733 -101.387 -228.119 -228.119 -228.119
s-228.119 101.386 -228.119 228.119c0 126.732 101.387 228.118 228.119 228.118zM256 -13.3066c98.8516 0 177.426 78.5732 177.426 177.426c0 98.8516 -78.5742 177.426 -177.426 177.426s-177.426 -78.5742 -177.426 -177.426
c0 -98.8525 78.5742 -177.426 177.426 -177.426zM281.347 265.505v-76.04h76.0391v-50.6924h-76.0391v-76.04h-50.6934v76.04h-76.0391v50.6924h76.0391v76.04h50.6934z" />
    <glyph glyph-name="uniF1F6" unicode="&#xf1f6;" 
d="M284.444 277.333v-56.8887h-56.8887v56.8887h56.8887zM398.223 277.333v-56.8887h-56.8896v56.8887h56.8896zM483.556 92.4443c17.0664 0 28.4443 -11.3779 28.4443 -28.4443v-99.5557c0 -17.0664 -11.3779 -28.4443 -28.4443 -28.4443
c-267.378 0 -483.556 216.178 -483.556 483.556c0 17.0664 11.3779 28.4443 28.4443 28.4443h99.5557c17.0664 0 28.4443 -11.3779 28.4443 -28.4443c0 -34.1338 5.68945 -68.2666 14.2227 -99.5557c5.68848 -8.5332 2.84375 -19.9111 -5.68945 -28.4443l-62.5771 -62.5781
c42.666 -79.6445 108.09 -147.911 187.733 -187.733l62.5771 62.5781c8.53223 5.68848 19.9111 8.5332 28.4443 5.68848c34.1338 -11.377 68.2666 -17.0664 102.4 -17.0664zM455.111 277.333h56.8887v-56.8887h-56.8887v56.8887z" />
    <glyph glyph-name="uniF28D" unicode="&#xf28d;" 
d="M162.909 78.5459l308.363 308.363l40.7275 -40.7275l-349.091 -349.091l-162.909 162.909l40.7275 40.7275z" />
    <glyph glyph-name="uniF199" unicode="&#xf199;" 
d="M455.111 448c31.2891 0 56.8887 -25.5996 56.8887 -56.8887v-398.223c0 -31.2891 -25.5996 -56.8887 -56.8887 -56.8887h-398.223c-31.2891 0 -56.8887 25.5996 -56.8887 56.8887v398.223c0 31.2891 25.5996 56.8887 56.8887 56.8887h398.223zM455.111 243.2v85.333
l-170.667 -193.422l-113.777 113.777l-113.778 -113.777v-85.334l113.778 113.778l113.777 -113.778z" />
    <glyph glyph-name="uniF298" unicode="&#xf298;" 
d="M0 277.333h113.777l142.223 142.223v-455.111l-142.223 142.223h-113.777v170.666zM384 192c0 -51.2002 -28.4443 -93.8662 -71.1113 -113.777v227.555c42.667 -19.9111 71.1113 -62.5771 71.1113 -113.777zM312.889 442.312
c113.778 -25.5996 199.111 -128 199.111 -250.312s-85.333 -224.71 -199.111 -250.312v59.7334c82.4893 25.6006 142.223 99.5547 142.223 190.578s-59.7334 164.978 -142.223 190.578v59.7334z" />
    <glyph glyph-name="uniF242" unicode="&#xf242;" 
d="M329.143 448v-48.7617h-146.285v48.7617h146.285zM231.619 131.048v146.285h48.7617v-146.285h-48.7617zM426.667 291.962c31.6953 -36.5713 48.7617 -85.333 48.7617 -136.533c0 -121.905 -97.5244 -219.429 -219.429 -219.429s-219.429 97.5234 -219.429 219.429
c0 121.904 97.5244 219.429 219.429 219.429c51.2002 0 99.9619 -19.5049 136.533 -48.7617l34.1338 34.1328c12.1904 -9.75195 24.3809 -21.9424 36.5713 -34.1328zM256 -15.2383c95.0859 0 170.667 75.5811 170.667 170.667s-75.5811 170.667 -170.667 170.667
s-170.667 -75.5811 -170.667 -170.667s75.5811 -170.667 170.667 -170.667z" />
    <glyph glyph-name="uniF257" unicode="&#xf257;" 
d="M0 21.333v56.8896h170.667v-56.8896h-170.667zM0 362.667h512v-56.8896h-512v56.8896zM0 163.556v56.8887h341.333v-56.8887h-341.333z" />
    <glyph glyph-name="uniF1C0" unicode="&#xf1c0;" 
d="M98.1338 0l196.267 192l-196.267 196.267l59.7324 59.7334l256 -256l-256 -256z" />
    <glyph glyph-name="uniF158" unicode="&#xf158;" 
d="M435.2 396.8c28.1602 0 51.2002 -23.04 51.2002 -51.2002v-358.399c0 -28.1602 -23.04 -51.2002 -51.2002 -51.2002h-358.4c-28.1602 0 -51.2002 23.04 -51.2002 51.2002v358.399c0 28.1602 23.04 51.2002 51.2002 51.2002h25.6006v51.2002h51.1992v-51.2002h204.801
v51.2002h51.1992v-51.2002h25.6006zM435.2 -12.7998v281.6h-358.4v-281.6h358.4zM128 89.5996v128h128v-128h-128z" />
    <glyph glyph-name="uniF18B" unicode="&#xf18b;" 
d="M0 45.7139v73.1436h182.857v-182.857h-73.1436v109.714h-109.714zM109.714 338.286v109.714h73.1436v-182.857h-182.857v73.1436h109.714zM329.143 -64v182.857h182.857v-73.1436h-109.714v-109.714h-73.1436zM402.286 338.286h109.714v-73.1436h-182.857v182.857
h73.1436v-109.714z" />
    <glyph glyph-name="uniF226" unicode="&#xf226;" 
d="M179.2 192c28.1602 0 51.2002 -23.04 51.2002 -51.2002s-23.04 -51.2002 -51.2002 -51.2002s-51.2002 23.04 -51.2002 51.2002s23.04 51.2002 51.2002 51.2002zM307.2 268.8c0 -28.1602 -23.04 -51.2002 -51.2002 -51.2002s-51.2002 23.04 -51.2002 51.2002
s23.04 51.2002 51.2002 51.2002s51.2002 -23.04 51.2002 -51.2002zM256 448c140.8 0 256 -115.2 256 -256s-115.2 -256 -256 -256s-256 115.2 -256 256s115.2 256 256 256zM256 -12.7998c112.64 0 204.8 92.1602 204.8 204.8s-92.1602 204.8 -204.8 204.8
s-204.8 -92.1602 -204.8 -204.8s92.1602 -204.8 204.8 -204.8zM332.8 192c28.1602 0 51.2002 -23.04 51.2002 -51.2002s-23.04 -51.2002 -51.2002 -51.2002s-51.2002 23.04 -51.2002 51.2002s23.04 51.2002 51.2002 51.2002z" />
    <glyph glyph-name="uniF20A" unicode="&#xf20a;" 
d="M256 448c118.568 0 215.579 -13.4736 215.579 -107.789v-256c0 -51.2002 -43.1162 -94.3164 -94.3154 -94.3164l40.4209 -40.4209v-13.4736h-323.369v13.4736l40.4219 40.4209c-51.2002 0 -94.3164 43.1162 -94.3164 94.3164v256
c0 94.3154 97.0107 107.789 215.579 107.789zM134.737 43.7891c21.5576 0 40.4209 18.8633 40.4209 40.4219c0 21.5576 -18.8633 40.4209 -40.4209 40.4209c-21.5586 0 -40.4219 -18.8633 -40.4219 -40.4209c0 -21.5586 18.8633 -40.4219 40.4219 -40.4219zM229.053 205.474
v134.737h-134.737v-134.737h134.737zM377.264 43.7891c21.5576 0 40.4209 18.8633 40.4209 40.4219c0 21.5576 -18.8633 40.4209 -40.4209 40.4209c-21.5586 0 -40.4219 -18.8633 -40.4219 -40.4209c0 -21.5586 18.8633 -40.4219 40.4219 -40.4219zM417.685 205.474v134.737
h-134.737v-134.737h134.737z" />
    <glyph glyph-name="uniF238" unicode="&#xf238;" 
d="M409.6 448c28.1602 0 51.2002 -23.04 51.2002 -51.2002v-409.6c0 -28.1602 -23.04 -51.2002 -51.2002 -51.2002h-307.199c-28.1602 0 -51.2002 23.04 -51.2002 51.2002v307.2l153.6 153.6h204.8zM256 294.4v102.399h-51.2002v-102.399h51.2002zM332.8 294.4v102.399
h-51.2002v-102.399h51.2002zM409.6 294.4v102.399h-51.1992v-102.399h51.1992z" />
    <glyph glyph-name="uniF214" unicode="&#xf214;" 
d="M435.2 371.2l76.7998 76.7998v-224h-224l102.4 102.4c-35.2002 35.1992 -80 57.5996 -134.4 57.5996c-105.6 0 -192 -86.4004 -192 -192s86.4004 -192 192 -192c83.2002 0 153.6 54.4004 179.2 128h67.2002c-28.8008 -108.8 -128 -192 -246.4 -192
c-140.8 0 -256 115.2 -256 256s115.2 256 256 256c70.4004 0 134.4 -28.7998 179.2 -76.7998z" />
    <glyph glyph-name="uniF13F" unicode="&#xf13f;" 
d="M139.637 -64v46.5459h46.5449v-46.5459h-46.5449zM232.728 -64v46.5459h46.5449v-46.5459h-46.5449zM279.272 448v-232.728h-46.5449v232.728h46.5449zM363.055 392.146c46.5449 -34.9092 79.127 -90.7637 79.127 -153.6c0 -102.4 -83.7812 -186.183 -186.182 -186.183
s-186.182 83.7822 -186.182 186.183c0 62.8359 32.582 118.69 79.127 153.6l34.9092 -34.9092c-39.5635 -23.2725 -67.4912 -67.4912 -67.4912 -118.69c0 -76.8008 62.8369 -139.637 139.637 -139.637s139.637 62.8359 139.637 139.637
c0 51.1992 -27.9268 95.418 -65.1641 121.018zM325.818 -64v46.5459h46.5449v-46.5459h-46.5449z" />
    <glyph glyph-name="uniF18C" unicode="&#xf18c;" 
d="M332.8 307.2l-76.7998 -76.7998l-76.7998 76.7998v140.8h153.6v-140.8zM140.8 268.8l76.7998 -76.7998l-76.7998 -76.7998h-140.8v153.6h140.8zM179.2 76.7998l76.7998 76.7998l76.7998 -76.7998v-140.8h-153.6v140.8zM371.2 268.8h140.8v-153.6h-140.8l-76.7998 76.7998
z" />
    <glyph glyph-name="uniF229" unicode="&#xf229;" 
d="M256 89.5996v38.4004h128v-38.4004h-128zM256 448c140.8 0 256 -115.2 256 -256s-115.2 -256 -256 -256s-256 115.2 -256 256s115.2 256 256 256zM102.4 294.4v-38.4004h51.1992v-51.2002h38.4004v51.2002h51.2002v38.4004h-51.2002v51.1992h-38.4004v-51.1992h-51.1992z
M256 -12.7998c112.64 0 204.8 92.1602 204.8 204.8c0 56.3203 -23.04 107.52 -58.8799 145.92l-291.84 -291.84c38.4004 -35.8398 89.5996 -58.8799 145.92 -58.8799z" />
    <glyph glyph-name="uniF15E" unicode="&#xf15e;" 
d="M372.363 122.182v186.182h-186.182v46.5459h186.182c25.6006 0 46.5459 -20.9453 46.5459 -46.5459v-186.182h-46.5459zM139.637 75.6367h372.363v-46.5459h-93.0908v-93.0908h-46.5459v93.0908h-232.727c-25.6006 0 -46.5459 20.9453 -46.5459 46.5459v232.727h-93.0908
v46.5459h93.0908v93.0908h46.5459v-372.363z" />
    <glyph glyph-name="uniF17F" unicode="&#xf17f;" 
d="M384 448c28.1602 0 51.2002 -23.04 51.2002 -51.2002v-409.6c0 -28.1602 -23.04 -51.2002 -51.2002 -51.2002h-256c-28.1602 0 -51.2002 23.04 -51.2002 51.2002v409.6c0 28.1602 23.04 51.2002 51.2002 51.2002h256zM256 396.8
c-28.1602 0 -51.2002 -23.04 -51.2002 -51.2002c0 -28.1592 23.04 -51.1992 51.2002 -51.1992s51.2002 23.04 51.2002 51.1992c0 28.1602 -23.04 51.2002 -51.2002 51.2002zM256 -12.7998c71.6797 0 128 56.3193 128 128c0 71.6797 -56.3203 128 -128 128
s-128 -56.3203 -128 -128c0 -71.6807 56.3203 -128 128 -128zM256 192c43.5195 0 76.7998 -33.2803 76.7998 -76.7998c0 -43.5205 -33.2803 -76.7998 -76.7998 -76.7998s-76.7998 33.2793 -76.7998 76.7998c0 43.5195 33.2803 76.7998 76.7998 76.7998z" />
    <glyph glyph-name="uniF109" unicode="&#xf109;" 
d="M90.0742 101.926v94.8154h331.852v-94.8154c0 -92.4443 -73.4814 -165.926 -165.926 -165.926s-165.926 73.4814 -165.926 165.926zM353.186 376.889c42.666 -28.4443 68.7402 -78.2217 68.7402 -132.74v-23.7041h-331.852v23.7041
c0 54.5186 26.0742 104.296 68.7402 132.74l-49.7773 49.7783l18.9629 21.333l54.5186 -54.5186c21.333 9.48145 47.4072 16.5928 73.4814 16.5928s52.1484 -7.11133 73.4814 -18.9629l54.5186 54.5186l18.9629 -18.9629zM184.889 267.852
c14.2227 0 23.7041 9.48145 23.7041 23.7041c0 14.2217 -9.48145 23.7031 -23.7041 23.7031c-14.2217 0 -23.7031 -9.48145 -23.7031 -23.7031c0 -14.2227 9.48145 -23.7041 23.7031 -23.7041zM327.111 267.852c14.2217 0 23.7031 9.48145 23.7031 23.7041
c0 14.2217 -9.48145 23.7031 -23.7031 23.7031c-14.2227 0 -23.7041 -9.48145 -23.7041 -23.7031c0 -14.2227 9.48145 -23.7041 23.7041 -23.7041z" />
    <glyph glyph-name="uniF263" unicode="&#xf263;" 
d="M0 192c0 118.4 83.2002 217.6 192 246.4v-64c-73.5996 -28.8008 -128 -99.2002 -128 -182.4c0 -54.4004 22.4004 -102.4 57.5996 -134.4l70.4004 70.4004v-192h-192l76.7998 76.7998c-48 44.7998 -76.7998 108.8 -76.7998 179.2zM512 448l-76.7998 -79.999
c48 -44.7998 76.7998 -108.8 76.7998 -179.2c0 -118.4 -83.2002 -217.601 -192 -246.4v67.1992c73.5996 28.8008 128 99.2002 128 182.4c0 54.4004 -22.4004 102.4 -57.5996 134.4l-70.4004 -70.4004v192h192z" />
    <glyph glyph-name="uniF277" unicode="&#xf277;" 
d="M136.533 396.8c-51.2002 -34.1328 -82.8955 -90.209 -87.7715 -156.038h-48.7617c4.87598 78.0195 43.8857 146.286 102.4 190.172zM463.238 240.762c-4.87598 65.8291 -36.5713 121.905 -85.334 156.038l34.1338 34.1338
c58.5146 -43.8857 95.0859 -112.152 99.9619 -190.172h-48.7617zM414.477 228.571v-134.095l48.7617 -48.7627v-24.3809h-414.477v24.3809l48.7617 48.7627v134.095c0 75.5811 51.2002 136.533 121.905 153.601v17.0664c0 19.5049 17.0664 36.5713 36.5713 36.5713
s36.5713 -17.0664 36.5713 -36.5713v-17.0664c70.7051 -17.0674 121.905 -78.0195 121.905 -153.601zM256 -51.8096c-26.8193 0 -48.7617 21.9434 -48.7617 48.7617h97.5234c0 -7.31445 -2.4375 -14.627 -4.87598 -19.5049
c-4.87598 -14.6279 -17.0664 -26.8184 -34.1338 -29.2568h-9.75195z" />
    <glyph glyph-name="uniF1FB" unicode="&#xf1fb;" 
d="M304.762 350.477h195.048v-365.715h-195.048c0 -26.8184 -21.9424 -48.7617 -48.7617 -48.7617h-195.048c-26.8184 0 -48.7617 21.9434 -48.7617 48.7617v365.715c0 26.8184 21.9434 48.7617 48.7617 48.7617h24.3809v24.3809c0 14.6289 9.75293 24.3809 24.3809 24.3809
h97.5244c14.6279 0 24.3809 -9.75195 24.3809 -24.3809v-24.3809h24.3809c26.8193 0 48.7617 -21.9434 48.7617 -48.7617zM256 33.5234v48.7627h-48.7617v-48.7627h48.7617zM256 252.952v48.7617h-48.7617v-48.7617h48.7617zM353.523 33.5234v48.7627h-48.7617v-48.7627
h48.7617zM353.523 252.952v48.7617h-48.7617v-48.7617h48.7617zM451.048 33.5234v48.7627h-48.7617v-48.7627h48.7617zM451.048 252.952v48.7617h-48.7617v-48.7617h48.7617z" />
    <glyph glyph-name="uniF210" unicode="&#xf210;" 
d="M469.333 384c23.4668 0 42.667 -19.2002 42.667 -42.667v-298.666c0 -23.4668 -19.2002 -42.667 -42.667 -42.667h-317.866c-14.9336 0 -27.7334 8.5332 -36.2666 19.2002l-115.2 172.8l115.2 172.8c8.5332 10.667 19.2002 19.2002 34.1328 19.2002h320zM192 160
c17.0664 0 32 14.9336 32 32s-14.9336 32 -32 32s-32 -14.9336 -32 -32s14.9336 -32 32 -32zM298.667 160c17.0664 0 32 14.9336 32 32s-14.9336 32 -32 32c-17.0674 0 -32 -14.9336 -32 -32s14.9326 -32 32 -32zM405.333 160c17.0674 0 32 14.9336 32 32
s-14.9326 32 -32 32c-17.0664 0 -32 -14.9336 -32 -32s14.9336 -32 32 -32z" />
    <glyph glyph-name="uniF224" unicode="&#xf224;" 
d="M256 448c140.8 0 256 -115.2 256 -256s-115.2 -256 -256 -256s-256 115.2 -256 256s115.2 256 256 256zM230.4 89.5996v204.801h-51.2002v-204.801h51.2002zM332.8 89.5996v204.801h-51.2002v-204.801h51.2002z" />
    <glyph glyph-name="uniF134" unicode="&#xf134;" 
d="M174.08 166.4c0 54.6133 27.3066 81.9199 81.9199 81.9199s81.9199 -27.3066 81.9199 -81.9199s-27.3066 -81.9199 -81.9199 -81.9199s-81.9199 27.3066 -81.9199 81.9199zM179.2 422.4h153.6l46.0801 -51.2002h81.9199c14.0801 0 26.1335 -5.01334 36.1602 -15.04
s15.04 -22.0801 15.04 -36.1602v-307.2c0 -14.0801 -5.01334 -26.1335 -15.04 -36.1602c-10.0267 -10.0267 -22.0801 -15.04 -36.1602 -15.04h-409.6c-14.0801 0 -26.1335 5.01335 -36.1602 15.04c-10.0267 10.0267 -15.04 22.0801 -15.04 36.1602v307.2
c0 14.0801 5.01335 26.1335 15.04 36.1602c10.0267 10.0267 22.0801 15.04 36.1602 15.04h81.9199zM256 38.4004c35.84 0 66.1333 12.3733 90.88 37.1198s37.12 55.0399 37.12 90.8802c0 35.8398 -12.3734 66.1331 -37.1201 90.8799
c-24.7467 24.7467 -55.04 37.1201 -90.8799 37.1201s-66.1331 -12.3734 -90.8799 -37.1201c-24.7467 -24.7467 -37.1201 -55.04 -37.1201 -90.8799c-7.62939e-06 -35.8402 12.3733 -66.1336 37.12 -90.8802c24.7467 -24.7466 55.04 -37.1199 90.88 -37.1198z" />
    <glyph glyph-name="uniF10C" unicode="&#xf10c;" 
d="M140.8 51.2002c-76.7998 0 -140.8 64 -140.8 140.8s64 140.8 140.8 140.8h268.8c56.3203 0 102.4 -46.0801 102.4 -102.399c0 -56.3203 -46.0801 -102.4 -102.4 -102.4h-217.6c-35.8398 0 -64 28.1602 -64 64s28.1602 64 64 64h192v-38.4004h-192
c-15.3604 0 -25.5996 -10.2393 -25.5996 -25.5996s10.2393 -25.5996 25.5996 -25.5996h217.6c35.8408 0 64 28.1592 64 64c0 35.8398 -28.1592 64 -64 64h-268.8c-56.3193 0 -102.399 -46.0801 -102.399 -102.4s46.0801 -102.4 102.399 -102.4h243.2v-38.3994h-243.2z" />
    <glyph glyph-name="uniF29A" unicode="&#xf29a;" 
d="M426.667 192c0 -53.333 -25.6006 -102.4 -64 -134.4l-21.334 -121.6h-170.666l-21.334 121.6c-38.3994 32 -64 81.0674 -64 134.4s25.6006 102.4 64 134.4l21.334 121.6h170.666l21.334 -121.6c38.3994 -32 64 -81.0674 64 -134.4zM128 192
c0 -70.4004 57.5996 -128 128 -128s128 57.5996 128 128s-57.5996 128 -128 128s-128 -57.5996 -128 -128z" />
    <glyph glyph-name="uniF24A" unicode="&#xf24a;" 
d="M153.6 38.4004c28.1602 0 51.2002 -23.04 51.2002 -51.2002s-23.04 -51.2002 -51.2002 -51.2002c-28.1592 0 -51.1992 23.04 -51.1992 51.2002s23.04 51.2002 51.1992 51.2002zM0 448h84.4805l23.0391 -51.2002h378.881c15.3594 0 25.5996 -10.2402 25.5996 -25.5996
c0 -5.12012 0 -7.68066 -5.12012 -12.7998l-92.1602 -166.399c-7.67969 -15.3604 -23.04 -25.5996 -43.5195 -25.5996h-189.44l-23.04 -43.5205v-2.56055c0 -2.56055 2.56055 -5.12012 5.12012 -5.12012h296.96v-51.2002h-307.2c-28.1592 0 -51.1992 23.04 -51.1992 51.2002
c0 7.67969 2.55957 17.9199 5.11914 25.5996l35.8408 61.4404l-92.1602 194.56h-51.2002v51.2002zM409.6 38.4004c28.1602 0 51.2002 -23.04 51.2002 -51.2002s-23.04 -51.2002 -51.2002 -51.2002c-28.1592 0 -51.1992 23.04 -51.1992 51.2002
s23.04 51.2002 51.1992 51.2002z" />
    <glyph glyph-name="uniF17A" unicode="&#xf17a;" 
d="M0 16.457v351.086l248.686 -175.543zM263.314 367.543l248.686 -175.543l-248.686 -175.543v351.086z" />
    <glyph glyph-name="uniF234" unicode="&#xf234;" 
d="M500.164 163.061c11.1309 -13.3564 11.1309 -33.3906 -2.22559 -44.5215l-142.469 -142.47c-13.3574 -13.3574 -33.3916 -13.3574 -46.749 0l-267.131 267.131c-13.3564 13.3564 -13.3564 33.3916 0 46.748l144.695 140.243c13.3564 13.3564 33.3916 13.3564 46.748 0
l53.4258 -53.4258l-31.1641 -31.166l-46.748 46.748l-126.887 -126.887l251.548 -251.549l126.887 126.887l-48.9736 48.9746l31.1641 31.166zM170.703 -8.34766l28.9395 28.9385l84.5908 -84.5908h-15.582c-138.018 0 -253.774 106.853 -264.904 244.869h33.3906
c8.9043 -84.5908 60.1045 -155.826 133.565 -189.217zM337.66 247.652c-13.3564 0 -22.2607 8.9043 -22.2607 22.2607v89.043c0 13.3574 8.9043 22.2617 22.2607 22.2617v11.1299c0 31.165 24.4863 55.6523 55.6523 55.6523c31.165 0 55.6514 -24.4873 55.6514 -55.6523
v-11.1299c13.3564 0 22.2607 -8.9043 22.2607 -22.2617v-89.043c0 -13.3564 -8.9043 -22.2607 -22.2607 -22.2607h-111.304zM355.469 392.348h0.000976562v-11.1299h75.6855v11.1299c0 20.0352 -17.8076 37.8438 -37.8428 37.8438
c-20.0361 0 -37.8438 -17.8086 -37.8438 -37.8438z" />
    <glyph glyph-name="uniF18A" unicode="&#xf18a;" 
d="M483.556 419.556v-56.8887h-455.111v56.8887h455.111zM512 135.111h-28.4443v-170.667h-56.8887v170.667h-113.778v-170.667h-284.444v170.667h-28.4443v56.8887l28.4443 142.223h455.111l28.4443 -142.223v-56.8887zM256 21.333v113.778h-170.667v-113.778h170.667z" />
    <glyph glyph-name="uniF19C" unicode="&#xf19c;" 
d="M236.089 288.711v0c-5.68848 25.6006 -5.68848 45.5117 0 62.5781c2.84473 0 2.84473 2.84473 2.84473 2.84473v0v0l2.84375 -2.84473v-2.84473c2.84473 -2.84473 2.84473 -14.2217 0 -28.4443v-5.68848c0 -8.53418 -2.84375 -14.2227 -5.68848 -25.6006
c2.84473 0 2.84473 0 0 0v0zM150.756 92.4443c0 0 2.84375 0 0 0c2.84375 0 2.84375 0 0 0c-17.0674 -34.1328 -34.1338 -51.2002 -51.2002 -54.0439v0v0v0c2.84473 8.53418 17.0664 28.4443 36.9775 45.5107c2.84473 2.84473 8.5332 5.68848 14.2227 8.5332z
M412.444 135.111c0 -2.84473 2.84473 -2.84473 2.84473 -2.84473v0v-2.84473h-2.84473v0h-5.68848c-14.2227 0 -34.1338 5.68945 -54.0449 14.2227v2.84473v0h5.68945c39.8223 0 51.1992 -8.53418 54.0439 -11.3779zM455.111 448
c31.2891 0 56.8887 -25.5996 56.8887 -56.8887v-398.223c0 -31.2891 -25.5996 -56.8887 -56.8887 -56.8887h-398.223c-31.2891 0 -56.8887 25.5996 -56.8887 56.8887v398.223c0 31.2891 25.5996 56.8887 56.8887 56.8887h398.223zM423.822 112.355
c5.68848 5.68945 8.5332 14.2227 11.3779 17.0664c0 5.68945 0 11.377 -2.8457 17.0674c-8.53223 14.2217 -31.2881 19.9111 -65.4209 19.9111c-11.3779 0 -22.7559 -2.84473 -36.9785 -2.84473c-11.377 5.68848 -17.0664 11.3779 -25.5996 17.0664
c-17.0664 17.0664 -34.1328 42.667 -45.5107 73.9561v2.84375c11.3779 36.9785 19.9121 82.4893 0 102.4c-5.68945 2.84473 -11.3779 5.68848 -17.0674 5.68848h-5.68848c-11.3779 0 -19.9111 -11.377 -22.7559 -22.7549
c-11.3779 -39.8223 -5.68848 -59.7334 5.68945 -93.8672v0c-8.5332 -25.5996 -17.0674 -54.0439 -31.2891 -82.4883c-11.3779 -19.9102 -19.9111 -36.9766 -28.4443 -51.1992c-11.3779 -5.69043 -19.9111 -11.3779 -25.6006 -14.2227
c-34.1328 -19.9121 -51.1992 -45.5117 -54.0439 -59.7344c0 -5.68848 0 -8.53223 2.84473 -14.2217v-2.84473l14.2217 -8.53223c2.84473 -2.8457 5.68945 -2.8457 11.3779 -2.8457c22.7559 0 51.2002 28.4443 85.333 88.1787
c2.84473 2.84473 2.84473 2.84473 5.68945 2.84473c28.4443 11.3779 65.4219 17.0654 113.777 22.7549c28.4443 -14.2227 62.5781 -19.9111 85.334 -19.9111c11.377 0 19.9092 2.84375 25.5996 5.68848zM238.934 223.289c11.3779 -25.6006 28.4443 -48.3555 42.666 -65.4219
c2.84473 -2.84473 5.68848 -5.68945 11.3779 -8.53418c-22.7549 -2.84375 -56.8887 -11.377 -93.8662 -25.5996v0h-2.84473h-2.84473c5.68945 11.3779 11.3779 19.9121 17.0674 31.2891c11.377 25.5996 22.7549 48.3555 28.4443 68.2666z" />
    <glyph glyph-name="uniF108" unicode="&#xf108;" 
d="M499.2 89.5996l-204.8 64v-140.8l51.1992 -38.3994v-38.4004l-89.5996 25.5996l-89.5996 -25.5996v38.4004l51.1992 38.3994v140.8l-204.8 -64v51.2002l204.8 128v140.8c0 20.4805 17.9199 38.4004 38.4004 38.4004s38.4004 -17.9199 38.4004 -38.4004v-140.8l204.8 -128
v-51.2002z" />
    <glyph glyph-name="uniF254" unicode="&#xf254;" 
d="M460.8 448c28.1602 0 51.2002 -23.04 51.2002 -51.2002v-307.2c0 -28.1592 -23.04 -51.1992 -51.2002 -51.1992h-358.399l-102.4 -102.4v460.8c0 28.1602 23.04 51.2002 51.2002 51.2002h409.6zM179.2 217.6v51.2002h-51.2002v-51.2002h51.2002zM281.6 217.6v51.2002
h-51.1992v-51.2002h51.1992zM384 217.6v51.2002h-51.2002v-51.2002h51.2002z" />
    <glyph glyph-name="uniF25D" unicode="&#xf25d;" 
d="M256 448c140.8 0 256 -115.2 256 -256s-115.2 -256 -256 -256s-256 115.2 -256 256s115.2 256 256 256zM115.2 268.8h64v-102.399h51.2002v102.399h64l-89.6006 89.6006zM396.8 115.2h-64v102.399h-51.2002v-102.399h-64l89.6006 -89.6006z" />
    <glyph glyph-name="uniF147" unicode="&#xf147;" 
d="M256 230.4c-56.3203 0 -102.4 46.0801 -102.4 102.399c0 56.3203 46.0801 102.4 102.4 102.4s102.4 -46.0801 102.4 -102.4c0 -56.3193 -46.0801 -102.399 -102.4 -102.399zM256 384c-28.1602 0 -51.2002 -23.04 -51.2002 -51.2002s23.04 -51.2002 51.2002 -51.2002
s51.2002 23.04 51.2002 51.2002s-23.04 51.2002 -51.2002 51.2002zM102.4 153.6c56.3193 0 102.399 -46.0801 102.399 -102.399c0 -56.3203 -46.0801 -102.4 -102.399 -102.4c-56.3203 0 -102.4 46.0801 -102.4 102.4c0 56.3193 46.0801 102.399 102.4 102.399zM102.4 -0
c28.1592 0 51.1992 23.04 51.1992 51.2002s-23.04 51.2002 -51.1992 51.2002c-28.1602 0 -51.2002 -23.04 -51.2002 -51.2002s23.04 -51.2002 51.2002 -51.2002zM256 202.24c25.5996 0 48.6396 -23.04 48.6396 -48.6406c0 -25.5996 -23.04 -48.6396 -48.6396 -48.6396
s-48.6396 23.04 -48.6396 48.6396c0 25.6006 23.04 48.6406 48.6396 48.6406zM409.6 153.6c56.3203 0 102.4 -46.0801 102.4 -102.399c0 -56.3203 -46.0801 -102.4 -102.4 -102.4c-56.3193 0 -102.399 46.0801 -102.399 102.4c0 56.3193 46.0801 102.399 102.399 102.399z
M409.6 -0c28.1602 0 51.2002 23.04 51.2002 51.2002s-23.04 51.2002 -51.2002 51.2002c-28.1592 0 -51.1992 -23.04 -51.1992 -51.2002s23.04 -51.2002 51.1992 -51.2002z" />
    <glyph glyph-name="uniF24E" unicode="&#xf24e;" 
d="M256 368.355l-91.0225 -91.0225l-39.8223 39.8223l130.845 130.845l130.845 -130.845l-39.8223 -39.8223zM256 15.6445l91.0225 91.0225l39.8223 -39.8223l-130.845 -130.845l-130.845 130.845l39.8223 39.8223z" />
    <glyph glyph-name="uniF239" unicode="&#xf239;" 
d="M463.127 215.272h48.873v-46.5449h-48.873c-9.30859 -95.418 -86.1084 -172.219 -183.854 -183.854v-48.873h-46.5449v48.873c-95.4189 9.30859 -172.219 86.1084 -183.854 183.854h-48.873v46.5449h48.873c9.30859 97.7461 86.1084 174.546 183.854 183.854v48.873
h46.5449v-48.873c95.418 -9.30859 172.219 -86.1084 183.854 -183.854zM256 29.0908c90.7637 0 162.909 72.1455 162.909 162.909s-72.1455 162.909 -162.909 162.909s-162.909 -72.1455 -162.909 -162.909s72.1455 -162.909 162.909 -162.909z" />
    <glyph glyph-name="uniF204" unicode="&#xf204;" 
d="M455.111 448c31.2891 0 56.8887 -25.5996 56.8887 -56.8887v-398.223c0 -31.2891 -25.5996 -56.8887 -56.8887 -56.8887h-398.223c-31.2891 0 -56.8887 25.5996 -56.8887 56.8887v398.223c0 31.2891 25.5996 56.8887 56.8887 56.8887h398.223zM170.667 49.7773v199.111
h-56.8896v-199.111h56.8896zM284.444 49.7773v284.445h-56.8887v-284.445h56.8887zM398.223 49.7773v113.778h-56.8896v-113.778h56.8896z" />
    <glyph glyph-name="uniF16A" unicode="&#xf16a;" 
d="M59.7334 349.866l196.267 -196.268l196.267 196.268l59.7334 -59.7344l-256 -255.998l-256 255.998z" />
    <glyph glyph-name="uniF1D2" unicode="&#xf1d2;" 
d="M291.229 363.449c-23.4863 0 -42.2754 18.7891 -42.2754 42.2754s18.7891 42.2754 42.2754 42.2754s42.2754 -18.7891 42.2754 -42.2754s-18.7891 -42.2754 -42.2754 -42.2754zM293.578 217.835l-25.835 42.2754l-16.4404 -68.1094l58.7158 -105.688v-150.312h-42.2754
v117.432l-54.0186 72.8076l-68.1104 -190.239h-42.2744l91.5957 361.688l-49.3213 -16.4404v-86.8994h-42.2744v122.128l126.825 39.9268c4.69727 2.34863 7.0459 2.34863 11.7432 2.34863c14.0918 0 28.1836 -9.39453 35.2295 -21.1377l46.9727 -77.5039h84.5498v-42.2754
h-115.082z" />
    <glyph glyph-name="uniF216" unicode="&#xf216;" 
d="M256 345.6c112.64 0 204.8 -92.1592 204.8 -204.8c0 -112.64 -92.1602 -204.8 -204.8 -204.8s-204.8 92.1602 -204.8 204.8h51.2002c0 -84.4795 69.1191 -153.6 153.6 -153.6s153.6 69.1201 153.6 153.6c0 84.4805 -69.1191 153.601 -153.6 153.601v-102.4l-128 128
l128 128v-102.4z" />
    <glyph glyph-name="uniF27F" unicode="&#xf27f;" 
d="M0 58.8799l281.6 284.16l97.2803 -97.2803l-281.6 -284.16h-97.2803v97.2803zM453.12 320l-43.5205 -48.6387l-97.2793 97.2793l46.0801 46.0801c10.2393 10.2402 25.5996 10.2402 35.8398 0l58.8799 -58.8809c10.2402 -10.2402 10.2402 -25.5996 0 -35.8398z
M230.4 12.7998h281.6v-51.2002h-332.8z" />
    <glyph glyph-name="uniF145" unicode="&#xf145;" 
d="M256 448c140.8 0 256 -115.2 256 -256s-115.2 -256 -256 -256s-256 115.2 -256 256s115.2 256 256 256zM256 -12.7998c112.64 0 204.8 92.1602 204.8 204.8s-92.1602 204.8 -204.8 204.8s-204.8 -92.1602 -204.8 -204.8s92.1602 -204.8 204.8 -204.8z" />
    <glyph glyph-name="uniF212" unicode="&#xf212;" 
d="M256 124.632c-45.8105 0 -80.8418 35.0312 -80.8418 80.8418v161.685c0 45.8105 35.0312 80.8418 80.8418 80.8418s80.8418 -35.0312 80.8418 -80.8418v-161.685c0 -45.8105 -35.0312 -80.8418 -80.8418 -80.8418zM223.663 369.853v-167.073
c0 -18.8643 13.4736 -32.3379 32.3369 -32.3379s32.3369 13.4736 32.3369 32.3379v167.073c0 18.8633 -13.4736 32.3369 -32.3369 32.3369s-32.3369 -13.4736 -32.3369 -32.3369zM398.821 205.474v0h45.8105c0 -91.6221 -72.7578 -167.073 -161.685 -180.547v-88.9268
h-53.8945v88.9268c-88.9268 13.4736 -161.685 88.9258 -161.685 180.547h45.8105c0 -80.8418 67.3691 -137.432 142.821 -137.432c75.4531 0 142.821 56.5898 142.821 137.432z" />
    <glyph glyph-name="uniF167" unicode="&#xf167;" 
d="M466.823 267.294l-210.823 -210.823l-210.823 210.823h120.471v180.706h180.705v-180.706h120.471zM45.1768 -3.76465h421.646v-60.2354h-421.646v60.2354z" />
    <glyph glyph-name="uniF1A1" unicode="&#xf1a1;" 
d="M463.238 374.857c26.8184 0 48.7617 -21.9434 48.7617 -48.7617v-292.572v-4.87598l-97.5234 97.5244v151.161l-82.8955 -68.2666l-14.6289 14.6289v53.6377h-53.6377l-97.5244 97.5244h297.448zM31.6953 448l480.305 -480.305l-31.6953 -31.6953l-48.7617 48.7617
h-358.4c-26.8184 0 -48.7617 21.9434 -48.7617 48.7617v292.572c0 17.0664 9.75293 34.1328 24.3809 41.4473l-48.7617 48.7617zM121.904 277.333v-195.047h195.048v17.0664l-177.98 177.98h-17.0674z" />
    <glyph glyph-name="uniF1FF" unicode="&#xf1ff;" 
d="M204.8 76.7998v230.4l153.601 -115.2zM256 448c140.8 0 256 -115.2 256 -256s-115.2 -256 -256 -256s-256 115.2 -256 256s115.2 256 256 256zM256 -12.7998c112.64 0 204.8 92.1602 204.8 204.8s-92.1602 204.8 -204.8 204.8s-204.8 -92.1602 -204.8 -204.8
s92.1602 -204.8 204.8 -204.8z" />
    <glyph glyph-name="uniF12A" unicode="&#xf12a;" 
d="M460.8 332.8c28.1602 0 51.2002 -23.04 51.2002 -51.2002v-281.6c0 -28.1602 -23.04 -51.2002 -51.2002 -51.2002h-409.6c-28.1602 0 -51.2002 23.04 -51.2002 51.2002v281.6c0 28.1602 23.04 51.2002 51.2002 51.2002h102.399v51.2002l51.2002 51.2002h102.4
l51.2002 -51.2002v-51.2002h102.399zM204.8 384v-51.2002h102.4v51.2002h-102.4zM217.6 38.4004l168.96 168.96l-35.8398 35.8398l-133.12 -133.12l-53.7598 53.7598l-35.8398 -35.8398z" />
    <glyph glyph-name="uniF104" unicode="&#xf104;" 
d="M512 155.429h-219.429v-219.429h-73.1426v219.429h-219.429v73.1426h219.429v219.429h73.1426v-219.429h219.429v-73.1426z" />
    <glyph glyph-name="uniF246" unicode="&#xf246;" 
d="M460.8 345.6c28.1602 0 51.2002 -23.04 51.2002 -51.1992v-256c0 -28.1602 -23.04 -51.2002 -51.2002 -51.2002h-409.6c-28.1602 0 -51.2002 23.04 -51.2002 51.2002v307.199c0 28.1602 23.04 51.2002 51.2002 51.2002h153.6l51.2002 -51.2002h204.8zM332.8 268.8
c-28.1602 0 -51.2002 -23.04 -51.2002 -51.2002c0 -28.1592 23.04 -51.1992 51.2002 -51.1992s51.2002 23.04 51.2002 51.1992c0 28.1602 -23.04 51.2002 -51.2002 51.2002zM435.2 64v25.5996c0 33.2803 -69.1201 51.2002 -102.4 51.2002
s-102.399 -17.9199 -102.399 -51.2002v-25.5996h204.8z" />
    <glyph glyph-name="uniF24D" unicode="&#xf24d;" 
d="M0 101.647v60.2354h512v-60.2354h-512zM0 -18.8232v60.2354h512v-60.2354h-512zM0 222.117v60.2354h512v-60.2354h-512zM0 402.823h512v-60.2354h-512v60.2354z" />
    <glyph glyph-name="uniF247" unicode="&#xf247;" 
d="M91.9307 122.206v140.631h328.138v-140.631h-328.138zM232.562 448h46.876v-67.9717h-46.876v67.9717zM420.068 391.748l32.8135 -32.8135l-42.1885 -42.1895l-32.8145 32.8135zM279.438 -62.957c0 0 -39.8447 -2.34375 -46.876 0v67.9717h46.876v-67.9717z
M455.226 28.4531l-35.1562 -35.1582l-39.8457 44.5332l32.8135 32.8135zM56.7734 356.59l35.1572 35.1582l39.8457 -44.5332l-32.8145 -32.8135zM91.9307 -6.70508l-32.8135 32.8145l42.1895 42.1875l32.8135 -32.8125z" />
    <glyph glyph-name="uniF221" unicode="&#xf221;" 
d="M256 448c140.8 0 256 -115.2 256 -256s-115.2 -256 -256 -256s-256 115.2 -256 256s115.2 256 256 256zM256 -12.7998c112.64 0 204.8 92.1602 204.8 204.8s-92.1602 204.8 -204.8 204.8s-204.8 -92.1602 -204.8 -204.8s92.1602 -204.8 204.8 -204.8zM153.6 166.4
v51.1992h204.801v-51.1992h-204.801z" />
    <glyph glyph-name="uniF13E" unicode="&#xf13e;" 
d="M372.363 448c25.6006 0 46.5459 -20.9453 46.5459 -46.5459v-418.908c0 -25.6006 -20.9453 -46.5459 -46.5459 -46.5459h-232.727c-25.6006 0 -46.5459 20.9453 -46.5459 46.5459v418.908c0 25.6006 20.9453 46.5459 46.5459 46.5459h232.727zM372.363 29.0908v325.818
h-232.727v-325.818h232.727z" />
    <glyph glyph-name="uniF1CB" unicode="&#xf1cb;" 
d="M455.111 448c31.2891 0 56.8887 -25.5996 56.8887 -56.8887v-398.223c0 -31.2891 -25.5996 -56.8887 -56.8887 -56.8887h-398.223c-31.2891 0 -56.8887 25.5996 -56.8887 56.8887v398.223c0 31.2891 25.5996 56.8887 56.8887 56.8887h398.223zM170.667 49.7773v56.8896
h-56.8896v-56.8896h56.8896zM170.667 163.556v56.8887h-56.8896v-56.8887h56.8896zM170.667 277.333v56.8896h-56.8896v-56.8896h56.8896zM398.223 49.7773v56.8896h-199.111v-56.8896h199.111zM398.223 163.556v56.8887h-199.111v-56.8887h199.111zM398.223 277.333
v56.8896h-199.111v-56.8896h199.111z" />
    <glyph glyph-name="uniF1EF" unicode="&#xf1ef;" 
d="M512 52.3633c0 -25.5996 -20.9453 -46.5449 -46.5459 -46.5449h-418.908c-25.6006 0 -46.5459 20.9453 -46.5459 46.5449v279.273c0 25.5996 20.9453 46.5449 46.5459 46.5449h418.908c25.6006 0 46.5459 -20.9453 46.5459 -46.5449v-279.273zM174.546 180.363
l-81.4551 -104.727h325.818l-104.728 139.636l-81.4541 -104.727z" />
    <glyph glyph-name="uniF14A" unicode="&#xf14a;" 
d="M409.6 396.8h102.4v-358.399c0 -28.1602 -23.04 -51.2002 -51.2002 -51.2002h-409.6c-28.1602 0 -51.2002 23.04 -51.2002 51.2002v307.199c0 28.1602 23.04 51.2002 51.2002 51.2002h25.5996l51.2002 -102.399h76.7998l-51.2002 102.399h51.2002l51.2002 -102.399
h76.7998l-51.2002 102.399h51.2002l51.2002 -102.399h76.7998z" />
    <glyph glyph-name="uniF1EE" unicode="&#xf1ee;" 
d="M256 448c142.223 0 256 -102.4 256 -227.556c0 -79.6445 -62.5781 -142.222 -142.223 -142.222h-51.1992c-22.7549 0 -42.667 -19.9111 -42.667 -42.667c0 -11.3779 5.68848 -19.9111 11.3779 -28.4443c8.5332 -8.5332 11.3779 -17.0664 11.3779 -28.4443
c0 -22.7559 -19.9111 -42.667 -42.667 -42.667c-142.223 0 -256 113.777 -256 256s113.777 256 256 256zM99.5557 192c22.7559 0 42.667 19.9111 42.667 42.667c0 22.7549 -19.9111 42.666 -42.667 42.666s-42.667 -19.9111 -42.667 -42.666
c0 -22.7559 19.9111 -42.667 42.667 -42.667zM184.889 305.777c22.7559 0 42.667 19.9111 42.667 42.667s-19.9111 42.667 -42.667 42.667c-22.7549 0 -42.666 -19.9111 -42.666 -42.667s19.9111 -42.667 42.666 -42.667zM327.111 305.777
c22.7549 0 42.666 19.9111 42.666 42.667s-19.9111 42.667 -42.666 42.667c-22.7559 0 -42.667 -19.9111 -42.667 -42.667s19.9111 -42.667 42.667 -42.667zM412.444 192c22.7559 0 42.667 19.9111 42.667 42.667c0 22.7549 -19.9111 42.666 -42.667 42.666
s-42.667 -19.9111 -42.667 -42.666c0 -22.7559 19.9111 -42.667 42.667 -42.667z" />
    <glyph glyph-name="uniF26B" unicode="&#xf26b;" 
d="M180.706 -3.76465v391.529h150.588v-391.529h-150.588zM0 -3.76465v391.529h150.588v-391.529h-150.588zM361.412 387.765h150.588v-391.529h-150.588v391.529z" />
    <glyph glyph-name="uniF25C" unicode="&#xf25c;" 
d="M113.777 220.444v-85.333h199.111v-56.8887h-199.111v-85.334l-113.777 113.778zM512 277.333l-113.777 -113.777v85.333h-199.111v56.8887h199.111v85.334z" />
    <glyph glyph-name="uniF1BC" unicode="&#xf1bc;" 
d="M460.8 448c28.1602 0 51.2002 -23.04 51.2002 -51.2002v-409.6c0 -28.1602 -23.04 -51.2002 -51.2002 -51.2002h-409.6c-28.1602 0 -51.2002 23.04 -51.2002 51.2002v409.6c0 28.1602 23.04 51.2002 51.2002 51.2002h409.6zM256 294.4
c-56.3203 0 -102.4 -46.0801 -102.4 -102.4s46.0801 -102.4 102.4 -102.4s102.4 46.0801 102.4 102.4s-46.0801 102.4 -102.4 102.4zM64 -12.7998h384c7.67969 0 12.7998 5.12012 12.7998 12.7998v217.6h-53.7598c2.55957 -7.67969 2.55957 -17.9199 2.55957 -25.5996
c0 -84.4805 -69.1191 -153.6 -153.6 -153.6s-153.6 69.1191 -153.6 153.6c0 7.67969 0 17.9199 2.55957 25.5996h-53.7598v-217.6c0 -7.67969 5.12012 -12.7998 12.7998 -12.7998zM460.8 332.8v51.2002c0 7.67969 -5.12012 12.7998 -12.7998 12.7998h-51.2002
c-7.67969 0 -12.7998 -5.12012 -12.7998 -12.7998v-51.2002c0 -7.67969 5.12012 -12.7998 12.7998 -12.7998h51.2002c7.67969 0 12.7998 5.12012 12.7998 12.7998z" />
    <glyph glyph-name="uniF208" unicode="&#xf208;" 
d="M0 192c0 105.244 73.9551 193.422 170.667 219.022v-56.8887c-65.4229 -25.6006 -113.778 -88.1787 -113.778 -162.134c0 -48.3555 19.9111 -91.0225 51.2002 -119.467l62.5781 62.5781v-170.667h-170.667l68.2666 68.2666
c-42.667 39.8223 -68.2666 96.7109 -68.2666 159.289zM227.556 49.7773v56.8896h56.8887v-56.8896h-56.8887zM512 419.556l-68.2666 -71.1104c42.667 -39.8223 68.2666 -96.7109 68.2666 -159.289c0 -105.245 -73.9551 -193.423 -170.667 -219.022v59.7324
c65.4229 25.6006 113.778 88.1787 113.778 162.134c0 48.3555 -19.9102 91.0225 -51.2002 119.467l-62.5781 -62.5781v170.667h170.667zM227.556 163.556v170.667h56.8887v-170.667h-56.8887z" />
    <glyph glyph-name="uniF291" unicode="&#xf291;" 
d="M488.728 378.182c13.9629 0 23.2725 -9.30859 23.2725 -23.2725v-93.0908c0 -13.9639 -9.30957 -23.2725 -23.2725 -23.2725h-116.364c-13.9629 0 -23.2725 9.30859 -23.2725 23.2725v93.0908c0 13.9639 9.30957 23.2725 23.2725 23.2725v11.6367
c0 32.582 25.6006 58.1816 58.1826 58.1816c32.5811 0 58.1816 -25.5996 58.1816 -58.1816v-11.6367zM470.109 378.182v0v11.6367c0 20.9453 -18.6172 39.5635 -39.5635 39.5635c-20.9473 0 -39.5645 -18.6182 -39.5645 -39.5635v-11.6367h79.1279zM416.582 192h46.5449
c2.32715 -6.98145 2.32715 -16.291 2.32715 -23.2725c0 -128 -104.727 -232.728 -232.727 -232.728s-232.728 104.728 -232.728 232.728s104.728 232.727 232.728 232.727c23.2725 0 48.8721 -4.6543 69.8184 -11.6357v-58.1816
c0 -25.6006 -20.9463 -46.5459 -46.5459 -46.5459h-46.5459v-46.5449c0 -13.9639 -9.30859 -23.2734 -23.2725 -23.2734h-46.5449v-46.5449h139.636c13.9639 0 23.2734 -9.30957 23.2734 -23.2734v-69.8174h23.2725c20.9453 0 37.2363 -13.9639 44.2178 -32.582
c30.2549 32.582 48.873 76.7998 48.873 125.673c0 6.98145 -2.32715 16.291 -2.32715 23.2725zM209.454 -15.127v44.2178c-25.5996 0 -46.5449 20.9453 -46.5449 46.5459v23.2725l-111.709 111.709c-2.32715 -13.9639 -4.6543 -27.9268 -4.6543 -41.8906
c0 -93.0908 72.1445 -172.219 162.908 -183.854z" />
    <glyph glyph-name="uniF25F" unicode="&#xf25f;" 
d="M73.1426 118.857v-109.715h109.715v-73.1426h-182.857v182.857h73.1426zM0 265.143v182.857h182.857v-73.1426h-109.715v-109.715h-73.1426zM438.857 9.14258v109.715h73.1426v-182.857h-182.857v73.1426h109.715zM329.143 448h182.857v-182.857h-73.1426v109.715
h-109.715v73.1426z" />
    <glyph glyph-name="uniF1ED" unicode="&#xf1ed;" 
d="M0 391.111c0 31.2891 25.5996 56.8887 56.8887 56.8887h170.667v-142.223l-113.778 28.4453l28.4453 -113.778h-142.223v170.667zM142.223 163.556l-28.4453 -113.778l113.778 22.7559v-136.533h-170.667c-31.2891 0 -56.8887 25.5996 -56.8887 56.8887v170.667h142.223z
M398.223 49.7773l-22.7559 113.778h136.533v-170.667c0 -31.2891 -25.5996 -56.8887 -56.8887 -56.8887h-170.667v136.533zM455.111 448c31.2891 0 56.8887 -25.5996 56.8887 -56.8887v-170.667h-142.223l28.4453 113.778l-113.778 -28.4453v142.223h170.667z" />
    <glyph glyph-name="uniF1FD" unicode="&#xf1fd;" 
d="M256 448c140.8 0 256 -115.2 256 -256s-115.2 -256 -256 -256s-256 115.2 -256 256s115.2 256 256 256zM256 -17.9199c61.4404 0 115.2 25.5996 151.04 66.5596c-104.96 -35.8398 -204.8 2.56055 -204.8 2.56055c-43.5205 12.7998 -43.5205 -15.3604 -28.1602 -53.7607
c25.5996 -10.2393 53.7598 -15.3594 81.9199 -15.3594zM437.76 87.04c7.68066 15.3604 15.3604 30.7197 17.9199 46.0801c-92.1602 7.67969 -250.88 128 -250.88 128c-71.6797 56.3203 -120.319 30.7197 -153.6 -10.2402
c-5.12012 -17.9199 -7.68066 -38.3994 -7.68066 -58.8799c0 -30.7197 7.68066 -61.4404 20.4805 -87.041c5.12012 12.7998 12.7998 30.7207 30.7197 30.7207c30.7207 0 48.6406 -23.04 97.2803 -38.3994c53.7598 -15.3613 94.7197 -35.8398 143.36 -35.8398
c48.6396 0 79.3594 15.3594 102.399 25.5996zM266.24 304.64c74.2402 -69.1201 145.92 -128 197.119 -133.12v23.04c0 20.4805 -2.55957 40.96 -7.67969 58.8809c-23.04 -48.6406 -84.4795 58.8799 -84.4795 58.8799c-43.5205 64 -122.88 76.7998 -194.561 74.2393
c-25.5996 -10.2393 -48.6396 -25.5996 -66.5596 -43.5195c25.5996 10.2402 84.4795 30.7197 156.16 -38.4004z" />
    <glyph glyph-name="uniF1BA" unicode="&#xf1ba;" 
d="M170.667 448l113.777 -113.777h-85.333v-199.111h-56.8887v199.111h-85.334zM369.777 49.7773h85.334l-113.778 -113.777l-113.777 113.777h85.333v199.111h56.8887v-199.111z" />
    <glyph glyph-name="uniF15F" unicode="&#xf15f;" 
d="M195.048 338.286c0 -14.6289 -2.43848 -26.8193 -9.75293 -39.0098l326.705 -326.705h-97.5234l-170.667 170.667l-58.5146 -58.5146c7.31445 -12.1904 9.75293 -24.3809 9.75293 -39.0098c0 -53.6377 -43.8857 -97.5234 -97.5244 -97.5234
c-53.6377 0 -97.5234 43.8857 -97.5234 97.5234c0 53.6387 43.8857 97.5244 97.5234 97.5244c14.6289 0 26.8193 -2.43848 39.0098 -9.75293l58.5146 58.5146l-58.5146 58.5146c-12.1904 -7.31445 -24.3809 -9.75293 -39.0098 -9.75293
c-53.6377 0 -97.5234 43.8857 -97.5234 97.5244c0 53.6377 43.8857 97.5234 97.5234 97.5234c53.6387 0 97.5244 -43.8857 97.5244 -97.5234zM97.5234 289.523c26.8193 0 48.7627 21.9434 48.7627 48.7627c0 26.8184 -21.9434 48.7617 -48.7627 48.7617
c-26.8184 0 -48.7617 -21.9434 -48.7617 -48.7617c0 -26.8193 21.9434 -48.7627 48.7617 -48.7627zM97.5234 -3.04785c26.8193 0 48.7627 21.9434 48.7627 48.7617c0 26.8193 -21.9434 48.7627 -48.7627 48.7627c-26.8184 0 -48.7617 -21.9434 -48.7617 -48.7627
c0 -26.8184 21.9434 -48.7617 48.7617 -48.7617zM243.81 204.19c-7.31445 0 -12.1904 -4.87598 -12.1904 -12.1904s4.87598 -12.1904 12.1904 -12.1904s12.1904 4.87598 12.1904 12.1904s-4.87598 12.1904 -12.1904 12.1904zM512 411.429l-195.048 -195.048
l-48.7617 48.7617l146.286 146.286h97.5234z" />
    <glyph glyph-name="uniF14D" unicode="&#xf14d;" 
d="M418.909 401.454c25.5996 0 46.5449 -20.9453 46.5449 -46.5449v-372.363c0 -25.6006 -20.9453 -46.5459 -46.5449 -46.5459h-325.818c-25.5996 0 -46.5449 20.9453 -46.5449 46.5459v372.363c0 25.5996 20.9453 46.5449 46.5449 46.5449h97.7451
c9.30957 27.9277 34.9092 46.5459 65.1641 46.5459s55.8545 -18.6182 65.1641 -46.5459h97.7451zM256 401.454c-13.9639 0 -23.2725 -9.30859 -23.2725 -23.2725s9.30859 -23.2725 23.2725 -23.2725s23.2725 9.30859 23.2725 23.2725s-9.30859 23.2725 -23.2725 23.2725z
M418.909 -17.4541v372.363h-46.5459v-69.8184h-232.727v69.8184h-46.5459v-372.363h325.818z" />
    <glyph glyph-name="uniF232" unicode="&#xf232;" 
d="M209.454 98.9092c-13.9629 0 -23.2725 9.30859 -23.2725 23.2725v69.8184c0 13.9639 9.30957 23.2725 23.2725 23.2725v23.2734c0 25.5996 20.9463 46.5449 46.5459 46.5449s46.5459 -20.9453 46.5459 -46.5449v-23.2734c13.9629 0 23.2725 -9.30859 23.2725 -23.2725
v-69.8184c0 -13.9639 -9.30957 -23.2725 -23.2725 -23.2725h-93.0918zM228.072 238.546v-23.2734h55.8555v23.2734c0 16.29 -11.6367 27.9268 -27.9277 27.9268s-27.9277 -11.6367 -27.9277 -27.9268zM372.363 448c25.6006 0 46.5459 -20.9453 46.5459 -46.5459v-418.908
c0 -25.6006 -20.9453 -46.5459 -46.5459 -46.5459h-232.727c-25.6006 0 -46.5459 20.9453 -46.5459 46.5459v418.908c0 25.6006 20.9453 46.5459 46.5459 46.5459h232.727zM372.363 29.0908v325.818h-232.727v-325.818h232.727z" />
    <glyph glyph-name="uniF128" unicode="&#xf128;" 
d="M398.223 448c31.2881 0 56.8887 -25.5996 56.8887 -56.8887v-455.111l-199.111 85.333l-199.111 -85.333v455.111c0 31.2891 25.6006 56.8887 56.8887 56.8887h284.445z" />
    <glyph glyph-name="uniF16B" unicode="&#xf16b;" 
d="M512 256v-256c0 -28.1602 -23.04 -51.2002 -51.2002 -51.2002h-409.6c-28.1602 0 -51.2002 23.04 -51.2002 51.2002v256c0 17.9199 10.2402 33.2803 23.04 43.5195l232.96 135.681l232.96 -135.681c12.7998 -10.2393 23.04 -25.5996 23.04 -43.5195zM256 128
l212.48 133.12l-212.48 122.88l-212.48 -122.88z" />
    <glyph glyph-name="uniF16F" unicode="&#xf16f;" 
d="M256 448c140.8 0 256 -115.2 256 -256s-115.2 -256 -256 -256s-256 115.2 -256 256s115.2 256 256 256zM432.64 294.4c-23.04 43.5195 -64 74.2393 -110.08 92.1592c15.3604 -30.7197 28.1602 -58.8799 35.8408 -92.1592h74.2393zM256 396.8
c-20.4805 -30.7197 -38.4004 -66.5596 -48.6396 -102.399h97.2793c-10.2393 38.3994 -28.1592 71.6797 -48.6396 102.399zM58.8799 140.8h87.04c0 17.9199 -2.55957 33.2803 -2.55957 51.2002s0 33.2803 2.55957 51.2002h-87.04
c-5.12012 -15.3604 -7.67969 -33.2803 -7.67969 -51.2002s2.55957 -35.8398 7.67969 -51.2002zM79.3604 89.5996c23.04 -43.5195 64 -74.2393 110.08 -92.1592c-15.3604 30.7197 -28.1602 58.8799 -35.8408 92.1592h-74.2393zM153.6 294.4
c7.68066 33.2793 20.4805 61.4395 35.8408 92.1592c-46.0801 -17.9199 -84.4805 -48.6396 -110.08 -92.1592h74.2393zM256 -12.7998c20.4805 30.7197 38.4004 66.5596 48.6396 102.399h-97.2793c10.2393 -38.3994 28.1592 -71.6797 48.6396 -102.399zM314.88 140.8
c2.56055 17.9199 7.67969 33.2803 7.67969 51.2002s-2.55957 33.2803 -5.11914 51.2002h-120.32c-2.56055 -17.9199 -5.12012 -33.2803 -5.12012 -51.2002s2.55957 -33.2803 5.12012 -51.2002h117.76zM322.56 -2.55957c46.0801 17.9199 87.04 48.6396 110.08 92.1592
h-74.2393c-7.68066 -33.2803 -20.4805 -64 -35.8408 -92.1592zM368.64 140.8h87.04c5.11914 15.3604 7.67969 33.2803 7.67969 51.2002s-2.55957 35.8398 -7.67969 51.2002h-87.04c0 -17.9199 2.56055 -33.2803 2.56055 -51.2002s0 -33.2803 -2.56055 -51.2002z" />
    <glyph glyph-name="uniF267" unicode="&#xf267;" 
d="M358.4 192l51.1992 -51.2002v-51.2002h-133.119v-153.6h-40.9609v153.6h-133.119v51.2002l51.1992 51.2002v204.8h-25.5996v51.2002h256v-51.2002h-25.5996v-204.8z" />
    <glyph glyph-name="uniF17C" unicode="&#xf17c;" 
d="M371.2 426.24c79.3594 0 140.8 -61.4404 140.8 -140.8c0 -94.7207 -89.5996 -174.08 -220.16 -294.4l-35.8398 -33.2803l-35.8398 33.2803c-133.12 117.76 -220.16 197.12 -220.16 294.4c0 79.3594 61.4404 140.8 140.8 140.8c43.5205 0 87.04 -20.4805 115.2 -53.7598
c28.1602 33.2793 71.6797 53.7598 115.2 53.7598zM258.56 26.8799c122.881 112.642 202.24 184.32 202.24 258.561c0 51.1992 -38.3994 89.5996 -89.5996 89.5996c-38.4004 0 -76.7998 -25.5996 -89.6006 -61.4404h-48.6396
c-15.3604 35.8408 -53.7598 61.4404 -92.1602 61.4404c-51.2002 0 -89.5996 -38.4004 -89.5996 -89.5996c0 -74.2402 79.3594 -145.919 202.24 -256l2.55957 -2.56055h2.55957z" />
    <glyph glyph-name="uniF122" unicode="&#xf122;" 
d="M312.32 192l58.8799 58.8799c5.11914 -17.9199 10.2402 -38.3994 10.2402 -58.8799s-2.56055 -40.959 -10.2402 -58.8799zM448 327.68c25.5996 -38.3994 38.4004 -84.4805 38.4004 -133.121c0 -48.6396 -12.8008 -97.2783 -38.4004 -135.679l-30.7197 30.7197
c15.3594 30.7207 25.5996 66.5605 25.5996 102.4s-10.2402 71.6797 -25.5996 102.4zM350.72 302.08l-110.08 -110.08l110.08 -110.08l-145.92 -145.92h-25.5996v194.56l-117.76 -117.76l-35.8408 35.8398l143.36 143.36l-143.36 143.36l35.8408 35.8398l117.76 -117.76
v194.56h25.5996zM230.4 350.72v-97.2793l48.6396 48.6396zM279.04 81.9199l-48.6396 48.6396v-97.2793z" />
    <glyph glyph-name="uniF19E" unicode="&#xf19e;" 
d="M455.111 448c31.2891 0 56.8887 -25.5996 56.8887 -56.8887v-398.223c0 -31.2891 -25.5996 -56.8887 -56.8887 -56.8887h-398.223c-31.2891 0 -56.8887 25.5996 -56.8887 56.8887v312.889v0v85.334c0 31.2891 25.5996 56.8887 56.8887 56.8887h398.223zM455.111 220.444
v56.8887h-227.556v113.778h-56.8887v-113.778h-113.778v-56.8887h113.778v-227.556h56.8887v227.556h227.556z" />
    <glyph glyph-name="uniF1B6" unicode="&#xf1b6;" 
d="M204.8 -25.5996h-128v204.8h-76.7998l256 230.399l256 -230.399h-76.7998v-204.8h-128v153.6h-102.4v-153.6z" />
    <glyph glyph-name="uniF1F3" unicode="&#xf1f3;" 
d="M460.8 76.7998c15.3604 0 25.6006 -10.2402 25.6006 -25.5996v-89.6006c0 -15.3594 -10.2402 -25.5996 -25.6006 -25.5996c-240.64 0 -435.2 194.56 -435.2 435.2c0 15.3594 10.2402 25.5996 25.6006 25.5996h89.5996c15.3604 0 25.6006 -10.2402 25.6006 -25.5996
c0 -30.7197 5.12012 -61.4404 12.7998 -89.6006c5.12012 -7.67969 2.55957 -17.9199 -5.12012 -25.5996l-56.3203 -56.3203c38.4004 -71.6797 97.2812 -133.12 168.96 -168.96l56.3203 56.3203c7.67871 5.12012 17.9199 7.67969 25.5996 5.12012
c30.7207 -10.2402 61.4404 -15.3604 92.1602 -15.3604zM460.8 371.2c15.3604 0 25.6006 -10.2402 25.6006 -25.6006v-102.399c0 -15.3604 -10.2402 -25.6006 -25.6006 -25.6006h-128c-15.3594 0 -25.5996 10.2402 -25.5996 25.6006v102.399
c0 15.3604 10.2402 25.6006 25.5996 25.6006v12.7998c0 35.8398 28.1602 64 64 64s64 -28.1602 64 -64v-12.7998zM440.32 371.2v0v12.7998c0 23.04 -20.4795 43.5195 -43.5205 43.5195s-43.5195 -20.4795 -43.5195 -43.5195v-12.7998h87.04z" />
    <glyph glyph-name="uniF1D7" unicode="&#xf1d7;" 
d="M437.238 117.238l0.000976562 -106.478h-106.478l-74.7617 -74.7607l-74.7617 74.7607h-106.478v106.478l-74.7607 74.7617l74.7607 74.7617v106.478h106.478l74.7617 74.7607l74.7607 -74.7607h106.478v-106.478l74.7607 -74.7617zM256 56.0713
c74.7617 0 135.929 61.167 135.929 135.929s-61.167 135.93 -135.929 135.93v-271.858z" />
    <glyph glyph-name="uniF1BD" unicode="&#xf1bd;" 
d="M398.223 192c0 -79.6445 -62.5781 -142.223 -142.223 -142.223v284.445c79.6445 0 142.223 -62.5781 142.223 -142.223zM455.111 448c31.2891 0 56.8887 -25.5996 56.8887 -56.8887v-398.223c0 -31.2891 -25.5996 -56.8887 -56.8887 -56.8887h-398.223
c-31.2891 0 -56.8887 25.5996 -56.8887 56.8887v398.223c0 31.2891 25.5996 56.8887 56.8887 56.8887h398.223zM455.111 -7.11133v398.223h-199.111v-56.8887c-79.6445 0 -142.223 -62.5781 -142.223 -142.223s62.5781 -142.223 142.223 -142.223v-56.8887h199.111z" />
    <glyph glyph-name="uniF258" unicode="&#xf258;" 
d="M460.8 448c28.1602 0 51.2002 -23.04 51.2002 -51.2002v-307.2c0 -28.1592 -23.04 -51.1992 -51.2002 -51.1992h-358.399l-102.4 -102.4v460.8c0 28.1602 23.04 51.2002 51.2002 51.2002h409.6zM76.7998 140.8h358.4l-115.2 153.601l-89.5996 -115.2l-64 76.7998z" />
    <glyph glyph-name="uniF15A" unicode="&#xf15a;" 
d="M170.667 224v-42.667h-64v-64h-42.667v64h-64v42.667h64v64h42.667v-64h64zM384 202.667c-6.40039 0 -12.7998 2.13281 -19.2002 2.13281c12.7998 19.2002 19.2002 38.4004 19.2002 61.8672s-6.40039 42.666 -19.2002 61.8662c6.40039 0 12.7998 2.13379 19.2002 2.13379
c36.2666 0 64 -27.7334 64 -64s-27.7334 -64 -64 -64zM277.333 202.667c-36.2666 0 -64 27.7334 -64 64s27.7334 64 64 64s64 -27.7334 64 -64s-27.7334 -64 -64 -64zM418.134 155.733c42.666 -6.40039 93.8662 -27.7334 93.8662 -59.7334v-42.667h-64v42.667
c0 23.4658 -12.7998 44.7988 -29.8662 59.7334zM277.333 160c42.667 0 128 -21.333 128 -64v-42.667h-256v42.667c0 42.667 85.334 64 128 64z" />
    <glyph glyph-name="uniF15D" unicode="&#xf15d;" 
d="M0 391.111c0 31.2891 25.5996 56.8887 56.8887 56.8887h113.778v-56.8887h-113.778v-113.778h-56.8887v113.778zM56.8887 106.667v-113.778h113.778v-56.8887h-113.778c-31.2891 0 -56.8887 25.5996 -56.8887 56.8887v113.778h56.8887zM455.111 -7.11133v113.778h56.8887
v-113.778c0 -31.2891 -25.5996 -56.8887 -56.8887 -56.8887h-113.778v56.8887h113.778zM455.111 448c31.2891 0 56.8887 -25.5996 56.8887 -56.8887v-113.778h-56.8887v113.778h-113.778v56.8887h113.778z" />
    <glyph glyph-name="uniF288" unicode="&#xf288;" 
d="M455.111 448c31.2891 0 56.8887 -25.5996 56.8887 -56.8887v-398.223c0 -31.2891 -25.5996 -56.8887 -56.8887 -56.8887h-398.223c-31.2891 0 -56.8887 25.5996 -56.8887 56.8887v398.223c0 31.2891 25.5996 56.8887 56.8887 56.8887h398.223zM426.667 21.333v170.667
h-164.979c17.0684 19.9111 28.4453 42.667 28.4453 71.1113c0 56.8887 -48.3564 105.244 -105.245 105.244s-105.244 -48.3555 -105.244 -105.244s48.3555 -105.245 105.244 -105.245c28.4443 0 51.2002 11.377 71.1113 28.4453v-164.979h170.667z" />
    <glyph glyph-name="uniF249" unicode="&#xf249;" 
d="M380.478 251.89h108.036c14.0918 0 23.4863 -9.39453 23.4863 -23.4863v-7.0459l-58.7158 -218.422c-4.69727 -21.1377 -23.4863 -35.2295 -44.624 -35.2295h-305.32c-21.1377 0 -39.9268 16.4404 -44.624 35.2295l-58.7158 218.422v7.0459
c0 14.0918 9.39453 23.4863 23.4863 23.4863h112.733l103.34 155.01c4.69727 7.0459 11.7432 9.39453 18.7891 9.39453s14.0908 -4.69727 18.7891 -9.39453zM187.89 251.89h140.918l-70.459 103.34zM258.349 64c25.835 0 46.9727 21.1377 46.9727 46.9727
s-21.1377 46.9727 -46.9727 46.9727s-46.9727 -21.1377 -46.9727 -46.9727s21.1377 -46.9727 46.9727 -46.9727z" />
    <glyph glyph-name="uniF1BF" unicode="&#xf1bf;" 
d="M157.866 448l256 -256l-256 -256l-59.7324 59.7334l196.267 196.267l-196.267 196.267z" />
    <glyph glyph-name="uniF13B" unicode="&#xf13b;" 
d="M452.267 391.111l59.7334 -170.667v-227.556c0 -17.0664 -11.3779 -28.4443 -28.4443 -28.4443h-28.4443c-17.0664 0 -28.4443 11.3779 -28.4443 28.4443v28.4443h-341.334v-28.4443c0 -17.0664 -11.3779 -28.4443 -28.4443 -28.4443h-28.4443
c-17.0664 0 -28.4443 11.3779 -28.4443 28.4443v227.556l59.7334 170.667c5.68848 17.0664 19.9111 28.4443 39.8223 28.4443h312.889c17.0664 0 34.1318 -11.3779 39.8223 -28.4443zM99.5557 106.667c22.7559 0 42.667 19.9111 42.667 42.666
c0 22.7559 -19.9111 42.667 -42.667 42.667s-42.667 -19.9111 -42.667 -42.667c0 -22.7549 19.9111 -42.666 42.667 -42.666zM412.444 106.667c22.7559 0 42.667 19.9111 42.667 42.666c0 22.7559 -19.9111 42.667 -42.667 42.667s-42.667 -19.9111 -42.667 -42.667
c0 -22.7549 19.9111 -42.666 42.667 -42.666zM56.8887 248.889h398.223l-42.667 128h-312.889z" />
    <glyph glyph-name="uniF1E7" unicode="&#xf1e7;" 
d="M455.111 448c31.2891 0 56.8887 -25.5996 56.8887 -56.8887v-398.223c0 -31.2891 -25.5996 -56.8887 -56.8887 -56.8887h-398.223c-31.2891 0 -56.8887 25.5996 -56.8887 56.8887v398.223c0 31.2891 25.5996 56.8887 56.8887 56.8887h398.223zM455.111 -7.11133v284.444
h-199.111v113.778h-199.111v-398.223h398.223z" />
    <glyph glyph-name="uniF193" unicode="&#xf193;" 
d="M455.111 448c31.2891 0 56.8887 -25.5996 56.8887 -56.8887v-398.223c0 -31.2891 -25.5996 -56.8887 -56.8887 -56.8887h-398.223c-31.2891 0 -56.8887 25.5996 -56.8887 56.8887v113.778v0v170.666v0v113.778c0 31.2891 25.5996 56.8887 56.8887 56.8887h398.223z
M227.556 49.7773l142.222 142.223l-142.222 142.223v-85.334h-170.667v-113.777h170.667v-85.334z" />
    <glyph glyph-name="uniF245" unicode="&#xf245;" 
d="M411.658 267.899c43.7393 0 74.6133 -30.874 74.6133 -74.6133c0 -43.7383 -33.4473 -77.1855 -77.1855 -77.1855c-20.583 0 -38.5938 7.71875 -51.458 20.583l-182.673 -108.061c2.57227 -7.71875 2.57227 -12.8643 2.57227 -18.0098
c0 -41.166 -33.4473 -74.6133 -74.6123 -74.6133c-41.166 0 -74.6133 33.4473 -74.6133 74.6133s33.4473 74.6133 74.6133 74.6133c20.582 0 38.5928 -7.71875 51.457 -20.583l182.673 108.06c-2.57227 5.14648 -2.57227 12.8643 -2.57227 18.0107
c0 5.14551 0 12.8643 2.57227 18.0098l-182.673 105.487c-12.8643 -12.8643 -30.875 -20.583 -51.457 -20.583c-43.7393 0 -77.1865 33.4473 -77.1865 77.1865c0 43.7383 33.4473 77.1855 77.1865 77.1855c43.7383 0 77.1855 -33.4473 77.1855 -77.1855
c0 -5.14648 0 -12.8643 -2.57324 -18.0107l182.674 -105.487c12.8643 12.8643 30.874 20.583 51.457 20.583z" />
    <glyph glyph-name="uniF12B" unicode="&#xf12b;" 
d="M437.238 117.238l0.000976562 -106.478h-106.478l-74.7617 -74.7607l-74.7617 74.7607h-106.478v106.478l-74.7607 74.7617l74.7607 74.7617v106.478h106.478l74.7617 74.7607l74.7607 -74.7607h106.478v-106.478l74.7607 -74.7617zM256 56.0713
c74.7617 0 135.929 61.167 135.929 135.929s-61.167 135.93 -135.929 135.93s-135.93 -61.168 -135.93 -135.93c0 -74.7607 61.168 -135.929 135.93 -135.929z" />
    <glyph glyph-name="uniF28E" unicode="&#xf28e;" 
d="M460.8 448c28.1602 0 51.2002 -23.04 51.2002 -51.2002v-307.2c0 -28.1592 -23.04 -51.1992 -51.2002 -51.1992h-358.399l-102.4 -102.4v460.8c0 28.1602 23.04 51.2002 51.2002 51.2002h409.6zM409.6 140.8v204.8l-102.399 -81.9199v81.9199h-204.8v-204.8h204.8
v81.9199z" />
    <glyph glyph-name="uniF157" unicode="&#xf157;" 
d="M256 220.16c15.3604 0 28.1602 -12.7998 28.1602 -28.1602s-12.7998 -28.1602 -28.1602 -28.1602s-28.1602 12.7998 -28.1602 28.1602s12.7998 28.1602 28.1602 28.1602zM256 448c140.8 0 256 -115.2 256 -256s-115.2 -256 -256 -256s-256 115.2 -256 256
s115.2 256 256 256zM312.32 135.68l97.2793 209.92l-209.92 -97.2793l-97.2793 -209.92z" />
    <glyph glyph-name="uniF166" unicode="&#xf166;" 
d="M386.747 308.463l-138.438 -138.438l-30.7637 30.7637l138.438 138.438zM479.039 339.228l32.9609 -30.7646l-263.691 -263.691l-123.056 123.057l30.7637 30.7637l92.292 -92.292zM0 167.828l30.7637 30.7637l123.057 -123.056l-30.7646 -30.7646z" />
    <glyph glyph-name="uniF27B" unicode="&#xf27b;" 
d="M460.8 448c28.1602 0 51.2002 -23.04 51.2002 -51.2002v-409.6c0 -28.1602 -23.04 -51.2002 -51.2002 -51.2002h-409.6c-28.1602 0 -51.2002 23.04 -51.2002 51.2002v409.6c0 28.1602 23.04 51.2002 51.2002 51.2002h409.6zM401.92 261.12
c12.7998 10.2402 25.5996 20.4795 28.1611 33.2803c-10.2402 -5.12012 -23.04 -7.68066 -35.8398 -10.2402c12.7998 10.2402 23.04 20.4795 28.1602 38.3994c-12.8008 -5.11914 -25.6006 -12.7998 -43.5205 -15.3594c-38.3994 48.6396 -135.681 10.2402 -117.761 -61.4404
c-66.5605 5.12012 -107.521 35.8398 -140.8 71.6807c-17.9199 -30.7207 -2.56055 -79.3604 20.4795 -92.1602c-10.2402 0 -20.4795 2.55957 -28.1602 7.67969c2.56055 -40.96 23.04 -58.8799 53.7607 -69.1201c-7.68066 0 -17.9199 -2.55957 -28.1602 0
c10.2402 -28.1602 30.7197 -46.0801 64 -48.6396c-23.04 -20.4814 -66.5605 -33.2812 -99.8398 -28.1602c30.7197 -17.9199 64 -33.2803 110.08 -30.7197c112.64 5.12012 186.88 87.04 189.439 204.8z" />
    <glyph glyph-name="uniF1BB" unicode="&#xf1bb;" 
d="M512 -7.11133c0 -31.2891 -25.5996 -56.8887 -56.8887 -56.8887h-398.223c-31.2891 0 -56.8887 25.5996 -56.8887 56.8887v398.223c0 31.2891 25.5996 56.8887 56.8887 56.8887h398.223c31.2891 0 56.8887 -25.5996 56.8887 -56.8887v-398.223zM156.444 149.333
l-99.5557 -128h398.223l-128 170.667l-99.5557 -128z" />
    <glyph glyph-name="uniF296" unicode="&#xf296;" 
d="M96 288h128l160 160v-512l-160 160h-128v192z" />
    <glyph glyph-name="uniF236" unicode="&#xf236;" 
d="M460.8 422.4c28.1602 0 51.2002 -23.04 51.2002 -51.2002v-307.2c0 -28.1602 -23.04 -51.2002 -51.2002 -51.2002h-102.399v-51.2002h-204.801v51.2002h-102.399c-28.1602 0 -51.2002 23.04 -51.2002 51.2002v307.2c0 28.1602 23.04 51.2002 51.2002 51.2002h409.6z
M460.8 64v307.2h-409.6v-307.2h409.6z" />
    <glyph glyph-name="uniF141" unicode="&#xf141;" 
d="M486.4 345.6c15.3594 0 25.5996 -10.2393 25.5996 -25.5996v-384l-102.4 102.4h-281.6c-15.3604 0 -25.5996 10.2393 -25.5996 25.5996v51.2002h332.8v230.399h51.2002zM384 192c0 -15.3604 -10.2402 -25.5996 -25.5996 -25.5996h-256l-102.4 -102.4v358.4
c0 15.3594 10.2402 25.5996 25.5996 25.5996h332.801c15.3594 0 25.5996 -10.2402 25.5996 -25.5996v-230.4z" />
    <glyph glyph-name="uniF29E" unicode="&#xf29e;" 
d="M256 405.333c96 0 185.6 -32 256 -85.333l-256 -341.333l-256 341.333c70.4004 53.333 160 85.333 256 85.333zM256 292.267c55.4668 0 106.667 -14.9336 151.467 -40.5332l42.667 57.5996c-57.6006 34.1338 -123.733 53.334 -194.134 53.334
s-136.533 -19.2002 -194.134 -53.334l42.667 -57.5996c44.7998 25.5996 96 40.5332 151.467 40.5332z" />
    <glyph glyph-name="uniF189" unicode="&#xf189;" 
d="M452.267 391.111l59.7334 -170.667v-227.556c0 -17.0664 -11.3779 -28.4443 -28.4443 -28.4443h-28.4443c-17.0664 0 -28.4443 11.3779 -28.4443 28.4443v28.4443h-341.334v-28.4443c0 -17.0664 -11.3779 -28.4443 -28.4443 -28.4443h-28.4443
c-17.0664 0 -28.4443 11.3779 -28.4443 28.4443v227.556l59.7334 170.667c5.68848 17.0664 19.9111 28.4443 39.8223 28.4443h312.889c17.0664 0 34.1318 -11.3779 39.8223 -28.4443zM99.5557 106.667c22.7559 0 42.667 19.9111 42.667 42.666
c0 22.7559 -19.9111 42.667 -42.667 42.667s-42.667 -19.9111 -42.667 -42.667c0 -22.7549 19.9111 -42.666 42.667 -42.666zM412.444 106.667c22.7559 0 42.667 19.9111 42.667 42.666c0 22.7559 -19.9111 42.667 -42.667 42.667s-42.667 -19.9111 -42.667 -42.667
c0 -22.7549 19.9111 -42.666 42.667 -42.666zM56.8887 248.889h398.223l-42.667 128h-312.889z" />
    <glyph glyph-name="uniF1AF" unicode="&#xf1af;" 
d="M426.667 448c26.8184 0 48.7617 -21.9434 48.7617 -48.7617v-341.334c0 -26.8184 -21.9434 -48.7617 -48.7617 -48.7617h-97.5244l-73.1426 -73.1426l-73.1426 73.1426h-97.5244c-26.8184 0 -48.7617 21.9434 -48.7617 48.7617v341.334
c0 26.8184 21.9434 48.7617 48.7617 48.7617h341.334zM280.381 57.9043v48.7627h-48.7617v-48.7627h48.7617zM331.581 245.638c12.1904 14.6289 21.9424 34.1338 21.9434 56.0762c0 53.6387 -43.8857 97.5244 -97.5234 97.5244s-97.5234 -43.8857 -97.5234 -97.5244h48.7617
c0 26.8193 21.9424 48.7627 48.7617 48.7627s48.7617 -21.9434 48.7617 -48.7627c0 -14.6279 -4.87598 -26.8184 -14.6279 -34.1328l-29.2588 -31.6953c-19.5049 -17.0664 -29.2568 -41.4473 -29.2568 -68.2666v-12.1904h48.7617c0 36.5713 9.75391 51.2002 29.2568 68.2666
z" />
    <glyph glyph-name="uniF211" unicode="&#xf211;" 
d="M409.6 64v51.2002h-307.199v-51.2002h307.199zM409.6 166.4v51.1992h-307.199v-51.1992h307.199zM409.6 268.8v51.2002h-307.199v-51.2002h307.199zM25.5996 -64v512l38.4004 -38.4004l38.4004 38.4004l38.3994 -38.4004l38.4004 38.4004l38.3994 -38.4004
l38.4004 38.4004l38.4004 -38.4004l38.3994 38.4004l38.4004 -38.4004l38.3994 38.4004l38.4004 -38.4004l38.4004 38.4004v-512l-38.4004 38.4004l-38.4004 -38.4004l-38.3994 38.4004l-38.4004 -38.4004l-38.3994 38.4004l-38.4004 -38.4004l-38.4004 38.4004
l-38.3994 -38.4004l-38.4004 38.4004l-38.3994 -38.4004l-38.4004 38.4004z" />
    <glyph glyph-name="uniF259" unicode="&#xf259;" 
d="M320 448h192v-192l-73.5996 73.5996l-92.8008 -92.7998l-44.7998 44.7998l92.7998 92.8008zM192 448l-73.5996 -73.5996l169.6 -169.601v-268.8h-64v243.2l-150.4 150.399l-73.5996 -73.5996v192h192z" />
    <glyph glyph-name="uniF261" unicode="&#xf261;" 
d="M409.6 256l102.4 102.4v-332.801l-102.4 102.4v-89.5996c0 -15.3604 -10.2393 -25.6006 -25.5996 -25.6006h-358.4c-15.3594 0 -25.5996 10.2402 -25.5996 25.6006v307.199c0 15.3604 10.2402 25.6006 25.5996 25.6006h358.4
c15.3604 0 25.5996 -10.2402 25.5996 -25.6006v-89.5996zM122.88 217.6h-46.0801c0 -64 51.2002 -115.199 115.2 -115.199s115.2 51.1992 115.2 115.199h38.3994l-64 64l-64 -64h43.5205c0 -38.3994 -30.7197 -69.1191 -69.1201 -69.1191s-69.1201 30.7197 -69.1201 69.1191
z" />
    <glyph glyph-name="uniF1D3" unicode="&#xf1d3;" 
d="M256 448c99.8398 0 179.2 -79.3604 179.2 -179.2c0 -133.12 -179.2 -332.8 -179.2 -332.8s-179.2 199.68 -179.2 332.8c0 99.8398 79.3604 179.2 179.2 179.2zM256 204.8c35.8398 0 64 28.1602 64 64s-28.1602 64 -64 64s-64 -28.1602 -64 -64s28.1602 -64 64 -64z" />
    <glyph glyph-name="uniF162" unicode="&#xf162;" 
d="M58.1816 98.9092c90.7637 0 162.909 -72.1455 162.909 -162.909h-46.5449c0 65.1641 -51.2002 116.363 -116.364 116.363v46.5459zM58.1816 5.81836c39.5635 0 69.8184 -30.2549 69.8184 -69.8184h-69.8184v69.8184zM58.1816 192c141.964 0 256 -114.036 256 -256
h-46.5449c0 116.363 -93.0908 209.454 -209.455 209.454v46.5459zM407.272 448c25.6006 0 46.5459 -20.9453 46.5459 -46.5459v-395.636c0 -25.6006 -20.9453 -46.5459 -46.5459 -46.5459h-48.8721c-2.32812 32.582 -9.30957 65.1641 -20.9463 93.0908h69.8184v302.546
h-232.727v-139.637c-13.9639 4.65527 -30.2549 9.30957 -46.5459 13.9639v172.218c0 25.6006 20.9453 46.5459 46.5459 46.5459h232.727z" />
    <glyph glyph-name="uniF1F9" unicode="&#xf1f9;" 
d="M455.111 391.111c31.2891 0 56.8887 -25.6006 56.8887 -56.8887v-284.445c0 -31.2881 -25.5996 -56.8887 -56.8887 -56.8887h-398.223c-31.2891 0 -56.8887 25.6006 -56.8887 56.8887v284.445c0 31.2881 25.5996 56.8887 56.8887 56.8887h398.223zM455.111 49.7773
v284.445h-398.223v-284.445h398.223z" />
    <glyph glyph-name="uniF266" unicode="&#xf266;" 
d="M465.454 378.182c25.6006 0 46.5459 -20.9453 46.5459 -46.5449v-279.273c0 -25.5996 -20.9453 -46.5449 -46.5459 -46.5449h-418.908c-25.6006 0 -46.5459 20.9453 -46.5459 46.5449v279.273c0 25.5996 20.9453 46.5449 46.5459 46.5449h418.908zM418.909 52.3633
v279.273h-325.818v-279.273h325.818z" />
    <glyph glyph-name="uniF28F" unicode="&#xf28f;" 
d="M398.223 234.667l113.777 113.777v-312.889l-113.777 113.777v-99.5557c0 -17.0664 -11.3779 -28.4443 -28.4453 -28.4443h-341.333c-17.0664 0 -28.4443 11.3779 -28.4443 28.4443v284.445c0 17.0664 11.3779 28.4443 28.4443 28.4443h341.333
c17.0674 0 28.4453 -11.3779 28.4453 -28.4443v-99.5557z" />
    <glyph glyph-name="uniF161" unicode="&#xf161;" 
d="M139.637 354.909v-46.5459h-46.5459v93.0908c0 25.6006 20.9453 46.5459 46.5459 46.5459h232.727c25.6006 0 46.5459 -20.9453 46.5459 -46.5459v-93.0908h-46.5459v46.5459h-232.727zM335.127 84.9453l-32.5811 32.582l74.4727 74.4727l-74.4727 74.4727
l32.5811 32.582l107.055 -107.055zM209.454 117.527l-32.5811 -32.582l-107.055 107.055l107.055 107.055l32.5811 -32.582l-74.4727 -74.4727zM372.363 29.0908v46.5459h46.5459v-93.0908c0 -25.6006 -20.9453 -46.5459 -46.5459 -46.5459h-232.727
c-25.6006 0 -46.5459 20.9453 -46.5459 46.5459v93.0908h46.5459v-46.5459h232.727z" />
    <glyph glyph-name="uniF190" unicode="&#xf190;" 
d="M512 224v-64h-390.4l179.2 -179.2l-44.7998 -44.7998l-256 256l256 256l44.7998 -44.7998l-179.2 -179.2h390.4z" />
    <glyph glyph-name="uniF1CC" unicode="&#xf1cc;" 
d="M0 192v28.4443l512 227.556l-227.556 -512h-28.4443v256h-256z" />
    <glyph glyph-name="uniF1C8" unicode="&#xf1c8;" 
d="M153.6 166.4v51.1992h204.801v-51.1992h-204.801zM48.6396 192c0 -58.8799 46.0801 -104.96 104.96 -104.96h76.8008v-48.6396h-76.8008c-84.4795 0 -153.6 69.1191 -153.6 153.6s69.1201 153.6 153.6 153.6h76.8008v-48.6396h-76.8008
c-58.8799 0 -104.96 -46.0801 -104.96 -104.96zM358.4 345.6c84.4795 0 153.6 -69.1191 153.6 -153.6s-69.1201 -153.6 -153.6 -153.6h-76.8008v48.6396h76.8008c58.8809 0 104.96 46.0801 104.96 104.96s-46.0801 104.96 -104.96 104.96h-76.8008v48.6396h76.8008z" />
    <glyph glyph-name="uniF290" unicode="&#xf290;" 
d="M0 131.765v120.471h120.471v-120.471h-120.471zM0 -18.8232v120.471h120.471v-120.471h-120.471zM0 282.353v120.471h120.471v-120.471h-120.471zM150.588 131.765v120.471h361.412v-120.471h-361.412zM150.588 -18.8232v120.471h361.412v-120.471h-361.412z
M150.588 402.823h361.412v-120.471h-361.412v120.471z" />
    <glyph glyph-name="uniF252" unicode="&#xf252;" 
d="M162.909 -64v46.5459h186.182v-46.5459h-186.182zM349.091 448c25.5996 0 46.5459 -20.9453 46.5459 -46.5459v-325.817c0 -25.6006 -20.9463 -46.5459 -46.5459 -46.5459h-186.182c-25.6006 0 -46.5459 20.9453 -46.5459 46.5459v325.817
c0 25.6006 20.9453 46.5459 46.5459 46.5459h186.182zM349.091 122.182v232.728h-186.182v-232.728h186.182z" />
    <glyph glyph-name="uniF19D" unicode="&#xf19d;" 
d="M455.111 448c31.2891 0 56.8887 -25.5996 56.8887 -56.8887v-398.223c0 -31.2891 -25.5996 -56.8887 -56.8887 -56.8887h-398.223c-31.2891 0 -56.8887 25.5996 -56.8887 56.8887v398.223c0 31.2891 25.5996 56.8887 56.8887 56.8887h398.223zM455.111 78.2227v227.555
h-398.223v-227.555h398.223z" />
    <glyph glyph-name="uniF1C3" unicode="&#xf1c3;" 
d="M426.667 64h85.333v-42.667h-512v42.667h85.333c-23.4668 0 -42.666 19.2002 -42.666 42.667v213.333c0 23.4668 19.1992 42.667 42.666 42.667h341.334c23.4668 0 42.666 -19.2002 42.666 -42.667v-213.333c0 -23.4668 -19.1992 -42.667 -42.666 -42.667zM85.333 320
v-213.333h341.334v213.333h-341.334z" />
    <glyph glyph-name="uniF174" unicode="&#xf174;" 
d="M458.105 326.737h53.8945v-161.685h-409.6l97.0098 -97.0107l-37.7256 -37.7266l-161.685 161.685l161.685 161.685l37.7256 -37.7266l-97.0098 -97.0107h355.705v107.79z" />
    <glyph glyph-name="uniF192" unicode="&#xf192;" 
d="M256 405.333c96 0 185.6 -32 256 -85.333l-256 -341.333l-256 341.333c70.4004 53.333 160 85.333 256 85.333zM256 292.267c55.4668 0 106.667 -14.9336 151.467 -40.5332l42.667 57.5996c-57.6006 34.1338 -123.733 53.334 -194.134 53.334
s-136.533 -19.2002 -194.134 -53.334l42.667 -57.5996c44.7998 25.5996 96 40.5332 151.467 40.5332z" />
    <glyph glyph-name="uniF22B" unicode="&#xf22b;" 
d="M256 448c140.8 0 256 -115.2 256 -256s-115.2 -256 -256 -256s-256 115.2 -256 256s115.2 256 256 256zM281.6 64v153.6h-51.1992v-153.6h51.1992zM281.6 268.8v51.2002h-51.1992v-51.2002h51.1992z" />
    <glyph glyph-name="uniF1CE" unicode="&#xf1ce;" 
d="M402.286 277.333c26.8184 0 48.7617 -21.9424 48.7617 -48.7617v-243.81c0 -26.8184 -21.9434 -48.7617 -48.7617 -48.7617h-292.572c-26.8184 0 -48.7617 21.9434 -48.7617 48.7617v243.81c0 26.8193 21.9434 48.7617 48.7617 48.7617h24.3818v48.7627
c0 68.2666 53.6377 121.904 121.904 121.904s121.904 -53.6377 121.904 -121.904v-48.7627h24.3818zM256 401.676c-41.4473 0 -75.5811 -34.1328 -75.5811 -75.5801h2.43848v-48.7627h148.724v48.7627c0 41.4473 -34.1338 75.5801 -75.5811 75.5801zM402.286 -15.2383
v243.81h-292.572v-243.81h292.572zM256 57.9043c-26.8193 0 -48.7617 21.9434 -48.7617 48.7627c0 26.8184 21.9424 48.7617 48.7617 48.7617s48.7617 -21.9434 48.7617 -48.7617c0 -26.8193 -21.9424 -48.7627 -48.7617 -48.7627z" />
    <glyph glyph-name="uniF123" unicode="&#xf123;" 
d="M248.533 -64v42.667h42.667v-42.667h-42.667zM163.2 -64v42.667h42.666v-42.667h-42.666zM333.866 -64v42.667h42.667v-42.667h-42.667zM391.467 326.4l-91.7334 -91.7334l91.7334 -91.7334l-121.601 -121.601h-21.333v162.134l-98.1328 -98.1338l-29.8672 29.8672
l119.467 119.467l-119.467 119.467l29.8672 29.8662l98.1328 -98.1338v162.134h21.333zM291.2 366.934v-81.0674l40.5332 40.5342zM331.733 142.934l-40.5332 40.5332v-81.0664z" />
    <glyph glyph-name="uniF11F" unicode="&#xf11f;" 
d="M418.56 302.08l-110.079 -110.08l110.079 -110.08l-145.92 -145.92h-25.5996v194.56l-117.76 -117.76l-35.8398 35.8398l143.359 143.36l-143.359 143.36l35.8398 35.8398l117.76 -117.76v194.56h25.5996zM298.24 350.72v-97.2793l48.6396 48.6396zM346.88 81.9199
l-48.6396 48.6396v-97.2783z" />
    <glyph glyph-name="uniF164" unicode="&#xf164;" 
d="M460.8 89.5996v51.2002h51.2002v-51.2002h-51.2002zM460.8 320h51.2002v-128h-51.2002v128zM204.8 396.8c112.641 0 204.8 -92.1602 204.8 -204.8s-92.1592 -204.8 -204.8 -204.8c-112.64 0 -204.8 92.1602 -204.8 204.8s92.1602 204.8 204.8 204.8zM204.8 140.8
c28.1602 0 51.2002 23.04 51.2002 51.2002s-23.04 51.2002 -51.2002 51.2002s-51.2002 -23.04 -51.2002 -51.2002s23.04 -51.2002 51.2002 -51.2002z" />
    <glyph glyph-name="uniF12D" unicode="&#xf12d;" 
d="M460.8 448c28.1602 0 51.2002 -23.04 51.2002 -51.2002v-307.2c0 -28.1592 -23.04 -51.1992 -51.2002 -51.1992h-358.399l-102.4 -102.4v460.8c0 28.1602 23.04 51.2002 51.2002 51.2002h409.6zM409.6 140.8v51.2002h-307.199v-51.2002h307.199zM409.6 217.6v51.2002
h-307.199v-51.2002h307.199zM409.6 294.4v51.1992h-307.199v-51.1992h307.199z" />
    <glyph glyph-name="uniF231" unicode="&#xf231;" 
d="M465.454 354.909c25.6006 0 46.5459 -20.9453 46.5459 -46.5459v-232.727c0 -25.6006 -20.9453 -46.5459 -46.5459 -46.5459h-418.908c-25.6006 0 -46.5459 20.9453 -46.5459 46.5459v232.727c0 25.6006 20.9453 46.5459 46.5459 46.5459h418.908zM418.909 75.6367
v232.727h-325.818v-232.727h325.818zM209.454 98.9092c-13.9629 0 -23.2725 9.30859 -23.2725 23.2725v69.8184c0 13.9639 9.30957 23.2725 23.2725 23.2725v23.2734c0 25.5996 20.9463 46.5449 46.5459 46.5449s46.5459 -20.9453 46.5459 -46.5449v-23.2734
c13.9629 0 23.2725 -9.30859 23.2725 -23.2725v-69.8184c0 -13.9639 -9.30957 -23.2725 -23.2725 -23.2725h-93.0918zM228.072 238.546v-23.2734h55.8555v23.2734c0 16.29 -11.6367 27.9268 -27.9277 27.9268s-27.9277 -11.6367 -27.9277 -27.9268z" />
    <glyph glyph-name="uniF1AE" unicode="&#xf1ae;" 
d="M256 448c116.363 0 209.454 -93.0908 209.454 -209.454v-232.728c0 -39.5635 -30.2539 -69.8184 -69.8174 -69.8184h-139.637v46.5459h162.909v23.2725h-93.0908v186.182h93.0908v46.5459c0 90.7627 -72.1455 162.908 -162.909 162.908
s-162.909 -72.1455 -162.909 -162.908v-46.5459h93.0908v-186.182h-69.8184c-39.5635 0 -69.8174 30.2539 -69.8174 69.8184v162.909c0 116.363 93.0908 209.454 209.454 209.454z" />
    <glyph glyph-name="uniF187" unicode="&#xf187;" 
d="M256 186.312c-34.1338 0 -62.5781 28.4443 -62.5781 62.5771c0 34.1338 28.4443 62.5781 62.5781 62.5781s62.5781 -28.4443 62.5781 -62.5781c0 -34.1328 -28.4443 -62.5771 -62.5781 -62.5771zM384 72.5332v-22.7559h-256v22.7559
c0 39.8223 85.333 62.5781 128 62.5781s128 -19.9111 128 -62.5781zM455.111 448c31.2891 0 56.8887 -25.5996 56.8887 -56.8887v-398.223c0 -31.2891 -25.5996 -56.8887 -56.8887 -56.8887h-398.223c-31.2891 0 -56.8887 25.5996 -56.8887 56.8887v398.223
c0 31.2891 25.5996 56.8887 56.8887 56.8887h398.223zM455.111 -7.11133v398.223h-398.223v-398.223h398.223z" />
    <glyph glyph-name="uniF27A" unicode="&#xf27a;" 
d="M257.169 320.584c-14.0273 0 -30.3926 -2.33789 -44.4199 -9.35059l-51.4336 51.4346c30.3926 9.35156 60.7852 16.3652 93.5156 16.3652c116.895 0 217.424 -72.4756 257.169 -175.343c-16.3652 -42.083 -44.4199 -79.4893 -79.4883 -109.881l-67.7998 67.7979
c7.01367 11.6895 9.35156 28.0547 9.35156 42.082c0 65.4609 -51.4336 116.895 -116.895 116.895zM23.3789 383.708l30.3926 30.3926l413.808 -413.809l-30.3926 -30.3926l-67.7988 67.7988l-9.35156 9.35156c-32.7305 -11.6895 -67.7988 -18.7031 -102.867 -18.7031
c-116.895 0 -217.425 72.4756 -257.169 175.343c16.3652 46.7578 46.7578 86.502 86.502 116.895l-9.35156 9.35254zM151.964 255.123c-7.01367 -16.3652 -11.6895 -32.7305 -11.6895 -51.4336c0 -65.4609 51.4336 -116.895 116.895 -116.895
c18.7041 0 35.0684 4.67578 51.4336 14.0273l-35.0684 35.0684c-7.01367 -2.33789 -11.6895 -2.33789 -16.3652 -2.33789c-39.7441 0 -70.1367 30.3926 -70.1367 70.1367v16.3652zM252.493 273.826c2.33789 0 2.33789 0 2.33789 2.33789
c39.7441 0 70.1367 -30.3926 70.1367 -70.1367v-4.67578z" />
    <glyph glyph-name="uniF1EA" unicode="&#xf1ea;" 
d="M256 -64c-28.1602 0 -51.2002 23.04 -51.2002 51.2002h102.4c0 -28.1602 -23.04 -51.2002 -51.2002 -51.2002zM422.4 89.5996l51.1992 -51.1992v-25.6006h-435.199v25.6006l51.1992 51.1992v140.801c0 79.3594 53.7607 143.359 128 161.279v17.9199
c0 20.4805 17.9199 38.4004 38.4004 38.4004s38.4004 -17.9199 38.4004 -38.4004v-17.9199c74.2393 -17.9199 128 -81.9199 128 -161.279v-140.801zM371.2 64v166.4c0 64 -51.2002 115.199 -115.2 115.199s-115.2 -51.1992 -115.2 -115.199v-166.4h230.4z" />
    <glyph glyph-name="uniF1E1" unicode="&#xf1e1;" 
d="M137.521 328.463v-74.0498h-31.7354v126.942h126.942v-31.7354h-74.0498l95.207 -95.207l126.941 126.942l21.1572 -21.1572l-148.099 -148.099zM501.422 91.5049c4.23145 -4.23242 10.5781 -8.46387 10.5791 -14.8105c0 -6.34766 -2.11523 -10.5791 -6.34668 -14.8096
l-52.8926 -52.8926c-4.23242 -4.23145 -8.46289 -6.34766 -14.8105 -6.34766c-6.34668 0 -10.5781 2.11523 -14.8096 6.34766c-16.9268 16.9248 -35.9678 29.6191 -57.124 40.1982c-8.46289 4.23047 -12.6953 10.5781 -12.6953 19.04v65.5879
c-29.6191 8.46289 -63.4707 14.8096 -97.3223 14.8096s-67.7021 -4.23145 -97.3223 -14.8096v-65.5879c0 -8.46191 -6.34766 -14.8086 -12.6943 -19.04c-21.1572 -10.5791 -40.1982 -25.3887 -57.124 -40.1982c-4.23145 -4.23145 -8.46289 -6.34766 -14.8096 -6.34766
c-6.34766 0 -10.5791 2.11523 -14.8105 6.34766l-52.8926 52.8926c-4.23145 4.23047 -6.34668 8.46289 -6.34668 14.8096c0 6.34766 2.11523 10.5781 6.34668 14.8105c63.4717 61.3555 152.331 99.4385 247.537 99.4385c95.207 0 184.066 -38.084 247.538 -99.4385z" />
    <glyph glyph-name="uniF1A0" unicode="&#xf1a0;" 
d="M256 448c117.386 0 212.293 -94.9072 212.293 -212.293c0 -112.39 -77.4248 -242.263 -199.805 -299.707v87.415h-12.4883c-117.386 0 -212.293 94.9072 -212.293 212.292c0 117.386 94.9072 212.293 212.293 212.293zM243.512 223.22v74.9268h-74.9268v-74.9268h37.4639
l-24.9756 -49.9512h37.4629zM343.415 223.22v74.9268h-74.9268v-74.9268h37.4629l-24.9756 -49.9512h37.4639z" />
    <glyph glyph-name="uniF1F5" unicode="&#xf1f5;" 
d="M325.12 230.4l-17.9199 17.9199l71.6797 71.6797l-71.6797 71.6797l17.9199 17.9199l58.8799 -58.8799v97.2803h12.7998l71.6816 -74.2402l-53.7617 -53.7598l56.3203 -53.7598l-74.2402 -74.2402h-12.7998v97.2803zM409.6 399.36v-48.6406l23.04 25.6006zM409.6 289.28
v-48.6406l23.04 25.6006zM460.8 76.7998c15.3604 0 25.6006 -10.2402 25.6006 -25.5996v-89.6006c0 -15.3594 -10.2402 -25.5996 -25.6006 -25.5996c-240.64 0 -435.2 194.56 -435.2 435.2c0 15.3594 10.2402 25.5996 25.6006 25.5996h89.5996
c15.3604 0 25.6006 -10.2402 25.6006 -25.5996c0 -30.7197 5.12012 -61.4404 12.7998 -89.6006c5.12012 -7.67969 2.55957 -17.9199 -5.12012 -25.5996l-56.3203 -56.3203c38.4004 -71.6797 97.2812 -133.12 168.96 -168.96l56.3203 56.3203
c7.67871 5.12012 17.9199 7.67969 25.5996 5.12012c30.7207 -10.2402 61.4404 -15.3604 92.1602 -15.3604z" />
    <glyph glyph-name="uniF1F0" unicode="&#xf1f0;" 
d="M455.111 448c31.2891 0 56.8887 -25.5996 56.8887 -56.8887v-398.223c0 -31.2891 -25.5996 -56.8887 -56.8887 -56.8887h-398.223c-31.2891 0 -56.8887 25.5996 -56.8887 56.8887v398.223c0 31.2891 25.5996 56.8887 56.8887 56.8887h398.223zM193.422 152.178v2.84473
h71.1113c42.667 0 62.5771 8.5332 79.6436 22.7549c17.0664 14.2227 25.5996 36.9785 25.5996 65.4229c0 25.5996 -5.6875 48.3555 -25.5996 65.4219c-17.0654 17.0664 -36.9766 25.6006 -79.6436 25.6006h-122.311v-284.445h51.1992v102.4zM193.422 192v102.4h65.4229
c19.9121 0 34.1338 -5.68945 42.666 -17.0674c8.5332 -11.3779 14.2227 -19.9111 14.2227 -34.1328c0 -17.0664 -5.68945 -25.6006 -14.2227 -36.9775c-8.53223 -8.53418 -19.9111 -14.2227 -39.8223 -14.2227h-68.2666z" />
    <glyph glyph-name="uniF22E" unicode="&#xf22e;" 
d="M85.333 -7.11133v341.334h341.334v-341.334c0 -31.2891 -25.6006 -56.8887 -56.8896 -56.8887h-227.555c-31.2891 0 -56.8896 25.5996 -56.8896 56.8887zM455.111 419.556v-56.8887h-398.223v56.8887h99.5557l28.4443 28.4443h142.223l28.4443 -28.4443h99.5557z" />
    <glyph glyph-name="uniF26C" unicode="&#xf26c;" 
d="M64 256c35.2002 0 64 -28.7998 64 -64s-28.7998 -64 -64 -64s-64 28.7998 -64 64s28.7998 64 64 64zM448 256c35.2002 0 64 -28.7998 64 -64s-28.7998 -64 -64 -64s-64 28.7998 -64 64s28.7998 64 64 64zM256 256c35.2002 0 64 -28.7998 64 -64s-28.7998 -64 -64 -64
s-64 28.7998 -64 64s28.7998 64 64 64z" />
    <glyph glyph-name="uniF28C" unicode="&#xf28c;" 
d="M349.091 215.272c-39.5635 0 -69.8184 30.2549 -69.8184 69.8184s30.2549 69.8184 69.8184 69.8184s69.8184 -30.2549 69.8184 -69.8184s-30.2549 -69.8184 -69.8184 -69.8184zM162.909 215.272c-39.5635 0 -69.8184 30.2549 -69.8184 69.8184
s30.2549 69.8184 69.8184 69.8184s69.8184 -30.2549 69.8184 -69.8184s-30.2549 -69.8184 -69.8184 -69.8184zM162.909 168.728c53.5273 0 162.909 -27.9277 162.909 -81.4551v-58.1816h-325.818v58.1816c0 53.5273 109.382 81.4551 162.909 81.4551zM349.091 168.728
c53.5273 0 162.909 -27.9277 162.909 -81.4551v-58.1816h-139.637v58.1816c0 32.582 -18.6182 60.5098 -46.5449 79.1279c9.30859 2.32715 16.291 2.32715 23.2725 2.32715z" />
    <glyph glyph-name="uniF129" unicode="&#xf129;" 
d="M460.8 332.8c28.1602 0 51.2002 -23.04 51.2002 -51.2002v-281.6c0 -28.1602 -23.04 -51.2002 -51.2002 -51.2002h-409.6c-28.1602 0 -51.2002 23.04 -51.2002 51.2002v281.6c0 28.1602 23.04 51.2002 51.2002 51.2002h102.399v51.2002l51.2002 51.2002h102.4
l51.2002 -51.2002v-51.2002h102.399zM204.8 384v-51.2002h102.4v51.2002h-102.4zM256 -0l128 128h-76.7998v102.4h-102.4v-102.4h-76.7998z" />
    <glyph glyph-name="uniF271" unicode="&#xf271;" 
d="M483.556 248.889c0 -54.0439 -36.9775 -96.7109 -85.333 -110.934v-31.2881h85.333c0 -54.0449 -36.9775 -99.5557 -85.333 -110.934v-31.2891c0 -17.0664 -11.3779 -28.4443 -28.4453 -28.4443h-227.555c-17.0674 0 -28.4453 11.3779 -28.4453 28.4443v31.2891
c-48.3555 14.2217 -85.333 56.8887 -85.333 110.934h85.333v31.2881c-48.3555 14.2227 -85.333 56.8896 -85.333 110.934h85.333v31.2891c-48.3555 14.2227 -85.333 56.8887 -85.333 110.934h85.333v28.4443c0 17.0664 11.3779 28.4443 28.4453 28.4443h227.555
c17.0674 0 28.4453 -11.3779 28.4453 -28.4443v-28.4443h85.333c0 -54.0449 -36.9775 -99.5557 -85.333 -110.934v-31.2891h85.333zM256 -7.11133c31.2891 0 56.8887 25.6006 56.8887 56.8887c0 31.2891 -25.5996 56.8896 -56.8887 56.8896
s-56.8887 -25.6006 -56.8887 -56.8896c0 -31.2881 25.5996 -56.8887 56.8887 -56.8887zM256 135.111c31.2891 0 56.8887 25.5996 56.8887 56.8887s-25.5996 56.8887 -56.8887 56.8887s-56.8887 -25.5996 -56.8887 -56.8887s25.5996 -56.8887 56.8887 -56.8887zM256 277.333
c31.2891 0 56.8887 25.6006 56.8887 56.8896c0 31.2881 -25.5996 56.8887 -56.8887 56.8887s-56.8887 -25.6006 -56.8887 -56.8887c0 -31.2891 25.5996 -56.8896 56.8887 -56.8896z" />
    <glyph glyph-name="uniF183" unicode="&#xf183;" 
d="M128 448h256l-102.4 -204.8h102.4l-179.2 -307.2v230.4h-76.7998v281.6z" />
    <glyph glyph-name="uniF273" unicode="&#xf273;" 
d="M460.8 448c28.1602 0 51.2002 -23.04 51.2002 -51.2002v-409.6c0 -28.1602 -23.04 -51.2002 -51.2002 -51.2002h-409.6c-28.1602 0 -51.2002 23.04 -51.2002 51.2002v409.6c0 28.1602 23.04 51.2002 51.2002 51.2002h409.6zM358.4 217.6v76.8008h-76.8008v76.7998
h-56.3193c-5.12012 -30.7197 -10.2402 -76.7998 -71.6807 -81.9199v-71.6807h51.2002v-120.319c0 -46.0801 33.2803 -87.04 99.8398 -87.04c28.1602 0 53.7607 2.55957 53.7607 2.55957v76.7998h-48.6406c-25.5996 0 -28.1602 10.2402 -28.1602 28.1602v99.8398h76.8008z
" />
    <glyph glyph-name="uniF138" unicode="&#xf138;" 
d="M304.081 107.533v129.949h-77.9697l142.944 142.944l142.944 -142.944h-77.9697v-129.949h-129.949zM226.111 3.57324v51.9805h285.889v-51.9805h-285.889zM83.168 341.441h51.9795l83.167 -233.908h-49.3809l-18.1924 51.9795h-83.168l-18.1924 -51.9795h-49.3809z
M80.5684 195.898h57.1777l-28.5889 93.5635z" />
    <glyph glyph-name="uniF1B5" unicode="&#xf1b5;" 
d="M268.8 435.2c133.12 0 243.2 -110.08 243.2 -243.2s-107.52 -243.2 -243.2 -243.2c-112.64 0 -207.359 76.7998 -235.52 179.2h53.7598c28.1602 -74.2402 97.2803 -128 181.76 -128c104.96 0 192 87.04 192 192s-87.04 192 -192 192
c-76.7998 0 -140.8 -43.5195 -174.08 -107.52l71.6807 -71.6807h-166.4v166.4l58.8799 -58.8799c40.96 74.2393 120.32 122.88 209.92 122.88zM230.4 307.2h38.3994v-107.521l102.4 -61.4395l-20.4805 -33.2803l-120.319 71.6797v130.561z" />
    <glyph glyph-name="uniF139" unicode="&#xf139;" 
d="M93.0908 87.2725c0 23.2728 11.6364 34.9092 34.9092 34.9092c23.2728 0 34.9092 -11.6364 34.9092 -34.9092s-11.6364 -34.9092 -34.9092 -34.9092c-23.2728 2.67029e-05 -34.9092 11.6364 -34.9092 34.9092zM349.091 87.2725
c0 23.2728 11.6364 34.9092 34.9092 34.9092s34.9092 -11.6364 34.9092 -34.9092s-11.6364 -34.9092 -34.9092 -34.9092c-23.2728 2.67029e-05 -34.9092 11.6364 -34.9092 34.9092zM416.582 285.091l48.8721 -139.637v-186.182
c0 -6.98156 -2.1333 -12.6057 -6.39987 -16.8724c-4.26657 -4.26671 -9.89078 -6.40006 -16.8726 -6.40006h-23.2725c-6.98181 0 -12.606 2.13335 -16.8726 6.40006c-4.26657 4.2667 -6.39987 9.89084 -6.39987 16.8724v23.2734h-279.273v-23.2734
c0 -6.98156 -2.13329 -12.6057 -6.39987 -16.8724c-4.26658 -4.26671 -9.89077 -6.40006 -16.8726 -6.40006h-23.2725c-6.98182 0 -12.606 2.13335 -16.8726 6.40006c-4.26658 4.2667 -6.39987 9.89084 -6.39987 16.8724v209.455h372.363l-30.2549 93.0908h-272.291
v-46.5459l-23.2725 23.2734l-46.5449 46.5449l69.8174 69.8184v-46.5459h232.728h34.9092c7.09274 0 13.7228 -2.15854 19.8901 -6.47565c6.16739 -4.31711 10.398 -9.91605 12.6919 -16.7968zM128 52.3633c9.30908 0 17.4545 3.49092 24.4364 10.4728
c6.98186 6.98185 10.4728 15.1273 10.4728 24.4364s-3.49092 17.4546 -10.4728 24.4364s-15.1273 10.4728 -24.4364 10.4728s-17.4546 -3.49093 -24.4364 -10.4728s-10.4728 -15.1273 -10.4728 -24.4364s3.49093 -17.4546 10.4728 -24.4364
c6.98185 -6.98185 15.1273 -10.4728 24.4364 -10.4728zM384 52.3633c9.30908 0 17.4546 3.49092 24.4364 10.4728c6.98184 6.98185 10.4728 15.1273 10.4728 24.4364s-3.49094 17.4546 -10.4728 24.4364s-15.1273 10.4728 -24.4364 10.4728
s-17.4546 -3.49093 -24.4364 -10.4728s-10.4728 -15.1273 -10.4728 -24.4364s3.49094 -17.4546 10.4728 -24.4364c6.98184 -6.98185 15.1273 -10.4728 24.4364 -10.4728zM349.091 448l69.8184 -69.8184l-69.8184 -69.8184v46.5459h-186.182v46.5449h186.182v46.5459z" />
    <glyph glyph-name="uniF1AA" unicode="&#xf1aa;" 
d="M93.0908 164.072l162.909 -88.4355l162.909 88.4355v-93.0908l-162.909 -88.4355l-162.909 88.4355v93.0908zM256 401.454l256 -139.636v-186.182h-46.5459v160.581l-209.454 -114.036l-256 139.637z" />
    <glyph glyph-name="uniF227" unicode="&#xf227;" 
d="M281.6 320v-102.4h102.4v-51.1992h-102.4v-102.4h-51.1992v102.4h-102.4v51.1992h102.4v102.4h51.1992zM256 448c140.8 0 256 -115.2 256 -256s-115.2 -256 -256 -256s-256 115.2 -256 256s115.2 256 256 256zM256 -12.7998c112.64 0 204.8 92.1602 204.8 204.8
s-92.1602 204.8 -204.8 204.8s-204.8 -92.1602 -204.8 -204.8s92.1602 -204.8 204.8 -204.8z" />
    </font>
</defs>
</svg>
